<?xml version="1.0" standalone="no"?>
<!DOCTYPE svg PUBLIC "-//W3C//DTD SVG 1.1//EN" "http://www.w3.org/Graphics/SVG/1.1/DTD/svg11.dtd" >
<svg xmlns="http://www.w3.org/2000/svg">
<metadata>
Created by FontForge 20120731 at Thu May 21 14:56:32 2015
 By Ads
</metadata>
<defs>
<font id="iconfont" horiz-adv-x="1024" >
  <font-face 
    font-family="iconfont"
    font-weight="500"
    font-stretch="normal"
    units-per-em="1024"
    panose-1="2 0 6 3 0 0 0 0 0 0"
    ascent="812"
    descent="-212"
    x-height="792"
    bbox="-2 -188 1002 792"
    underline-thickness="50"
    underline-position="-100"
    unicode-range="U+0078-E64B"
  />
<missing-glyph horiz-adv-x="374" 
d="M34 0v682h272v-682h-272zM68 34h204v614h-204v-614z" />
    <glyph glyph-name=".notdef" horiz-adv-x="374" 
d="M34 0v682h272v-682h-272zM68 34h204v614h-204v-614z" />
    <glyph glyph-name=".null" horiz-adv-x="0" 
 />
    <glyph glyph-name="nonmarkingreturn" horiz-adv-x="341" 
 />
    <glyph glyph-name="x" unicode="x" horiz-adv-x="1001" 
d="M281 543q-27 -1 -53 -1h-83q-18 0 -36.5 -6t-32.5 -18.5t-23 -32t-9 -45.5v-76h912v41q0 16 -0.5 30t-0.5 18q0 13 -5 29t-17 29.5t-31.5 22.5t-49.5 9h-133v-97h-438v97zM955 310v-52q0 -23 0.5 -52t0.5 -58t-10.5 -47.5t-26 -30t-33 -16t-31.5 -4.5q-14 -1 -29.5 -0.5
t-29.5 0.5h-32l-45 128h-439l-44 -128h-29h-34q-20 0 -45 1q-25 0 -41 9.5t-25.5 23t-13.5 29.5t-4 30v167h911zM163 247q-12 0 -21 -8.5t-9 -21.5t9 -21.5t21 -8.5q13 0 22 8.5t9 21.5t-9 21.5t-22 8.5zM316 123q-8 -26 -14 -48q-5 -19 -10.5 -37t-7.5 -25t-3 -15t1 -14.5
t9.5 -10.5t21.5 -4h37h67h81h80h64h36q23 0 34 12t2 38q-5 13 -9.5 30.5t-9.5 34.5q-5 19 -11 39h-368zM336 498v228q0 11 2.5 23t10 21.5t20.5 15.5t34 6h188q31 0 51.5 -14.5t20.5 -52.5v-227h-327z" />
    <glyph glyph-name="uniE600" unicode="&#xe600;" 
d="M732 -64v730l-437 -369z" />
    <glyph glyph-name="uniE601" unicode="&#xe601;" 
d="M314 652v-730l437 369z" />
    <glyph glyph-name="uniE602" unicode="&#xe602;" 
d="M424 407l-45 47l-12 -11l46 -47zM664 443l-11 11l-46 -47l11 -11zM378 310h-64v-17h64v17zM524 509h-16v-66h16v66zM367 161l12 -12l45 47l-11 12zM796 654h-561v-705h561v705zM516 77q-60 0 -110 30t-79.5 82t-29.5 113q0 93 64 158.5t154.5 65.5t154.5 -65.5t64 -158.5
t-64 -159t-154 -66zM653 293h65v17h-65v-17zM827 750h-623q-26 0 -44 -18.5t-18 -45.5v-769q0 -26 18 -45t44 -19h623q26 0 44 19t18 45v769q0 18 -8 32.5t-22.5 23t-31.5 8.5zM827 -83h-623v769h623v-769zM508 94h16v66h-16v-66zM515.5 398q-38.5 0 -66 -28.5t-27.5 -68
t27.5 -67.5t66 -28t66 28t27.5 67.5t-27.5 68t-66 28.5zM607 196l46 -47l11 12l-46 47z" />
    <glyph glyph-name="uniE603" unicode="&#xe603;" 
d="M512 747v0v0q-90 0 -172.5 -35t-142.5 -95t-95 -142.5t-35 -173t35 -173t95 -142t142.5 -94.5t172.5 -35v0q61 0 118.5 16t106.5 44.5t90 69.5t70 90t45 106.5t16 118.5q0 90 -35.5 172.5t-95 142.5t-142 95t-173.5 35zM853 361h-135q-10 150 -58 253q77 -37 128 -101.5
t65 -151.5zM512 658q7 0 18 -10.5t25 -34.5t26.5 -57t23.5 -84.5t14 -110.5h-214q4 59 14.5 110.5t23.5 84.5t27 57t25 34.5t17 10.5zM364 614q-48 -103 -58 -253h-135q15 87 65.5 151.5t127.5 101.5zM171 243h135q10 -153 58 -258q-38 18 -70.5 44t-57.5 58.5t-42 72
t-23 83.5zM405 243h215q-4 -51 -14.5 -98.5t-23.5 -81.5t-27 -60t-25.5 -39t-17.5 -13q-4 0 -10 5.5t-13.5 15.5t-16 25t-17 33.5t-16.5 42t-15 49.5t-12 57.5t-7 63.5zM661 -15q48 105 58 258h135q-14 -88 -65 -154.5t-128 -103.5z" />
    <glyph glyph-name="uniE604" unicode="&#xe604;" 
d="M740 758h-451q-26 0 -48.5 -13t-35 -35.5t-12.5 -49.5v-750q0 -41 28 -69.5t68 -28.5h451q40 0 68 28.5t28 69.5v750q0 27 -13 49.5t-35 35.5t-48 13zM386 677q0 7 4.5 11.5t11.5 4.5h225q7 0 11.5 -4.5t4.5 -11.5v-33q0 -4 -2 -8t-6 -6t-8 -2h-225q-5 0 -8.5 2t-5.5 6
t-2 8v33zM514 -123q-26 0 -45 19t-19 46.5t19 46.5t45.5 19t45.5 -19t19 -46q0 -18 -8.5 -33t-23.5 -24t-33 -9zM740 40h-451v555h451v-555z" />
    <glyph glyph-name="uniE605" unicode="&#xe605;" 
d="M508.5 586q118.5 0 202 -84t83.5 -202q0 -34 -7.5 -66t-21.5 -60t-33.5 -53t-44.5 -44.5t-53 -33.5t-60.5 -21.5t-65.5 -7.5q-118 0 -202 83.5t-84 202t84 202.5t202.5 84z" />
    <glyph glyph-name="uniE606" unicode="&#xe606;" 
d="M817 90h-614l-137 -68v-69h888v69zM817 636h-614v-478h614v478zM749 226h-478v342h478v-342z" />
    <glyph glyph-name="uniE607" unicode="&#xe607;" 
d="M955 65v618h-893v-618h343v-69h-137v-69h481v69h-138v69h344zM130 133v481h756v-481h-756z" />
    <glyph glyph-name="uniE608" unicode="&#xe608;" 
d="M910 433h-26l-217 -277h-106v14v16q0 3 0.5 13.5t1.5 14t3 11.5t5 12l7 10q5 6 11 9.5t14 7.5h-228q-3 -1 -7.5 -2t-16 -6.5t-20.5 -14t-16.5 -26t-7.5 -40.5v-238q0 -17 17 -25q8 -4 17 -3.5t17 5.5l75 71l79 -71q4 -3 11 -4.5t13 -1.5q4 0 9.5 2.5t11 9.5t5.5 17v110
h122q26 0 43 11.5t36 35.5q11 14 58 79.5t89 124.5l41 58q16 33 0 55t-41 22zM303 358h317q6 0 13 1.5t12.5 4.5t10.5 6.5t9 8.5l253 242q3 5 5.5 10t4.5 11t2 12.5t-1.5 12.5t-5 11.5t-9.5 9.5t-15 6.5t-21 2.5q-31 0 -215.5 -0.5t-221.5 -0.5q-26 0 -38 -3t-15.5 -7.5
t-11 -17.5t-19.5 -24q-8 -8 -41 -34t-68.5 -56.5t-73.5 -68t-65.5 -82.5t-33.5 -87q-13 -53 -1 -102q10 -47 35.5 -83.5t56.5 -56t58.5 -29t50.5 -11.5v124q-7 1 -15 4q-18 6 -32.5 17t-24 26.5t-13.5 33.5q-5 27 1 49t18.5 34.5t30.5 21t33.5 11.5t29.5 3z" />
    <glyph glyph-name="uniE609" unicode="&#xe609;" 
d="M584 239q-33 4 -67.5 4t-67.5 -4q-10 -1 -18 -7t-12.5 -15.5t-4.5 -20.5v-291q0 -18 11 -31t27 -13h129q16 0 27 13t11 31v291q0 17 -10 29.5t-25 13.5zM879 386q-17 2 -34 3t-34 1t-34.5 -1t-33.5 -3q-8 0 -14.5 -4t-11 -10t-7 -13.5t-2.5 -15.5v-438q0 -18 11 -31
t27 -13h129q16 0 27.5 13t11.5 31v438q-1 17 -11 29.5t-24 13.5zM290 151q-68 8 -136 0q-14 -1 -24.5 -14t-10.5 -30v-202q0 -18 11.5 -31t27.5 -13h129q16 0 27 13t11 31v203q0 11 -4.5 20.5t-12.5 15.5t-18 7zM852.5 743q-42.5 0 -72.5 -30t-30 -73v-3l-198 -150l-111 119
q-17 19 -42 19q-8 1 -16 -1t-15 -6t-12 -10l-132 -131q-5 1 -9 1.5t-8 0.5q-43 0 -73 -30.5t-30 -73t30 -72.5t72.5 -30t72.5 30t30 73q0 8 -2 18l89 90l105 -116q10 -11 24 -15.5t28.5 -2.5t26.5 11l241 182q8 -3 16 -4.5t15 -1.5q43 0 73 30.5t30 73t-30 72.5t-72.5 30z
" />
    <glyph glyph-name="uniE60A" unicode="&#xe60a;" 
d="M952 -12v424q0 6 1 14t1.5 13t0 10.5t-2.5 8.5t-6 5t-12 2h-88v-354h-673v354h-53q-15 0 -27 -7t-19 -19t-7 -27v-424q0 -13 5.5 -24.5t16 -19t23.5 -9.5q103 -16 144 -22t108.5 -11t144.5 -5q116 0 210 9t224 29q9 2 12 7t2 11t-3 16.5t-2 18.5zM846 6h-106v71h106v-71z
M811 657q0 13 -9.5 23.5t-22.5 11.5q-270 30 -539 0q-14 -1 -23 -11.5t-9 -23.5v-511h603v511zM727 316q-1 -10 -3.5 -20.5t-5.5 -20.5t-8.5 -18.5t-11.5 -14.5q-44 -45 -135.5 -22.5t-166.5 98.5q-51 50 -78 99.5t-27 91t29 71.5q22 23 76 29h4q4 0 8 -2t6 -6l66 -113l3 -9
q0 -3 -1.5 -6.5t-4.5 -5.5l-47 4q-8 -9 -2 -19q3 -6 7 -11t7 -9t9 -10l8 -8l9 -10l10 -9q27 -27 60 -47q2 -2 4.5 -2.5t5 0t5 1.5t4.5 3l36 36h1q8 10 12 10l8 1l105 -61l-1 -2q2 -1 3.5 -2.5t3 -3.5t2.5 -4.5t1 -4.5l-2 -3h1z" />
    <glyph glyph-name="uniE60B" unicode="&#xe60b;" 
d="M869 132v479q0 14 -6.5 26.5t-18 20.5t-25.5 10q-140 23 -306 23t-306 -23q-6 -1 -12 -3t-11 -5t-9 -7t-7.5 -9t-6 -10t-3.5 -11t-1 -12v-480q-31 -11 -50 -23.5t-29 -32t-10 -47.5q0 -75 81.5 -91.5t363.5 -16.5t363.5 16.5t81.5 91.5q0 41 -21 63.5t-68 40.5zM750 157
h-474v405q140 15 237 15q28 0 56.5 -1t50.5 -2.5t49.5 -4t42 -4t38.5 -3.5v-405zM399 480q-5 -5 -5 -12q9 -86 59 -184q4 -8 13 -8q4 0 7.5 2.5t5.5 6.5l18 44q17 -13 32 -24.5t26 -18.5t15 -8q14 -5 24 5q11 12 6 25q-5 12 -51 72l44 19q9 4 9 13q0 4 -2 7.5t-6 5.5
q-95 48 -184 59q-6 0 -11 -4z" />
    <glyph glyph-name="uniE60C" unicode="&#xe60c;" 
d="M601 565l-444 128l-88 -87l377 -213zM888 544q13 13 27.5 34t27.5 48t13 55.5t-18 46.5q-15 15 -37 17.5t-43 -4t-42.5 -18t-36.5 -23t-24 -20.5q-8 -8 -110.5 -116.5t-201.5 -213.5l-99 -105l-220 45l-64 -74l236 -139l121 -213l67 69l-31 206q-1 -1 104.5 97t214.5 199
t116 109zM900 691q9 -13 3.5 -34t-16.5 -41l-11 -19q10 45 -7 62q-5 5 -13 7.5t-16 2.5t-15.5 -0.5t-12.5 -2.5l-4 -1q1 1 3.5 3t10.5 6.5t15.5 8t17.5 7.5t18 5.5t15.5 0.5t11.5 -5zM602 236l213 -376l88 87l-129 444z" />
    <glyph glyph-name="uniE60D" unicode="&#xe60d;" 
d="M931 244q0 -106 -56 -195t-152.5 -141t-210 -52t-209.5 52t-152 141t-56 195q0 60 19 117t54.5 103.5t83 82.5t106.5 57.5t123 26.5v1v60h-129q-13 0 -22.5 8.5t-9.5 21t9.5 21t22.5 8.5h322q13 0 22.5 -8.5t9.5 -21t-9.5 -21t-22.5 -8.5h-129v-60v-1q79 -6 150.5 -38.5
t123 -84t82 -120.5t30.5 -144zM513 572q-96 0 -177.5 -44t-129 -119.5t-47.5 -164.5t47.5 -165t129 -120t177.5 -44t177.5 44t129 120t47.5 165t-47.5 164.5t-129 119.5t-177.5 44zM513 154q-26 0 -48.5 12t-35.5 32.5t-13 45.5q0 29 18 52t47 32v155q0 12 9 21t22.5 9
t23 -9t9.5 -21v-155q28 -9 46 -32t18 -52q0 -37 -28 -63.5t-68 -26.5z" />
    <glyph glyph-name="uniE60E" unicode="&#xe60e;" 
d="M852 622q-66 68 -154 106t-187 38q-19 0 -39 -1q-6 -4 -13 -10.5t-20.5 -21t-26 -37t-26.5 -52.5t-25.5 -74.5t-19.5 -96.5q38 13 109.5 42t125 50t130 38.5t146.5 18.5zM265 454q26 205 115 294q-98 -28 -175.5 -94t-121.5 -157q74 -62 182 -43zM334 411q-4 -40 -5 -83
h656q-9 119 -73 219q-49 8 -89 9t-87 -8.5t-85 -21t-82.5 -28.5t-80.5 -31.5t-78.5 -30.5t-75.5 -25zM259 395q-113 -13 -196 54q-21 -59 -25 -121h218q0 12 0.5 23.5t1 22.5t1.5 21zM336 140q32 -10 72.5 -26.5t74.5 -32t77 -32.5t79 -28.5t81 -21t82.5 -8t84.5 9.5v-1
q87 113 98 255h-656q1 -61 7 -115zM472 -182q20 -2 39 -2q170 0 301 107q-64 3 -133.5 21t-118 38t-114.5 49.5t-101 42.5q10 -55 25.5 -100t29.5 -71t30.5 -46t25 -27.5t16.5 -11.5zM96 60q46 -82 120 -141t164 -85q-79 83 -110 262q-103 21 -174 -36zM262 157
q-2 23 -3.5 47.5t-2.5 50.5h-218q5 -78 36 -149q79 67 188 51z" />
    <glyph glyph-name="uniE60F" unicode="&#xe60f;" 
d="M563 643q-37 0 -76 -5.5t-60 -11.5l-20 -6q-2 2 -5.5 5t-14 11t-22 15t-29 14t-35.5 10.5t-40.5 2.5t-44.5 -8q10 -11 14 -25t3 -26.5t0.5 -31t8.5 -35.5q-36 -33 -63 -68q-11 -15 -16 -37t-4.5 -41t-2.5 -39.5t-12 -32.5t-19.5 -17.5t-19 -5t-18 -1.5t-14.5 -9
q-3 -5 -4.5 -21.5t-0.5 -37.5t6 -42.5t14 -33.5q17 -15 35.5 -16.5t37 -5t38.5 -24.5q33 -44 80 -77q3 -3 -1.5 -12t-9 -23t2.5 -39q6 -13 48.5 -16t59.5 6q6 5 6.5 11.5t-1 9.5t3.5 5q5 -1 9 -2.5t8 -3.5q6 -5 3 -17t1.5 -24.5t21.5 -12.5q6 -1 18 -1h23q11 0 29 1
q7 2 10 10t4 14.5t2 6.5q26 -2 53 -2q17 0 34.5 2.5t27.5 5t30.5 9t29.5 9.5q9 1 10 -4t-2.5 -12.5t-3.5 -14.5t7 -9q3 2 26 0t46.5 -1t30.5 9q13 12 12 56t10 47q73 47 100.5 103.5t27.5 145.5q0 71 -29 134t-80 109t-125 73t-159 27zM267 396q-11 0 -19 8t-8 19.5t8 19.5
t19 8q8 0 14 -3.5t10 -10t4 -14t-4 -13.5t-10 -10t-14 -4zM736 449q-40 16 -85 23t-69 6l-24 -1q-5 0 -9 1t-7.5 4t-6 6t-4 7.5t-1.5 8.5q0 8 3.5 14t10 10t14.5 4q27 1 55.5 -1.5t49.5 -6.5t38.5 -8.5t26.5 -7.5l8 -4q16 -4 21.5 -10t5.5 -17.5t-7.5 -19.5t-19.5 -8z" />
    <glyph glyph-name="uniE610" unicode="&#xe610;" 
d="M660 180h-294q-19 0 -36 -10t-27 -27t-10 -37v-293h440v293q0 31 -21.5 52.5t-51.5 21.5zM660 253v440q0 15 -6 28.5t-16 23t-23.5 15.5t-28.5 6l-220 -220v-293l293 -7l1 6v1z" />
    <glyph glyph-name="uniE611" unicode="&#xe611;" 
d="M883 366q0 -100 -46 -185t-125 -134t-172 -49t-172.5 49t-125.5 134t-46 185h687zM299.5 50q42.5 0 72.5 -32.5t30 -78t-30 -78t-73 -32.5q-28 0 -51.5 15t-37.5 40.5t-14 55.5q0 45 30.5 77.5t73 32.5zM780 50q43 0 73 -32.5t30 -77.5q0 -30 -13.5 -55.5t-37.5 -40.5
t-52 -15q-43 0 -73 32.5t-30 78t30 78t73 32.5zM59 733h137l69 -367h-69l-60 294h-77v73zM582 755q87 0 161 -24t130.5 -68.5t89 -115.5t32.5 -160q0 2 -103 -16.5t-206 -37.5l-104 -20v442z" />
    <glyph glyph-name="uniE612" unicode="&#xe612;" 
d="M615 7q-31 0 -52.5 -21.5t-21.5 -52.5q0 -15 6 -29t15.5 -23.5t23.5 -15.5t29 -6q10 0 19.5 2.5t18 7.5t15 11.5t11.5 15t7.5 18t2.5 19.5q0 31 -21.5 52.5t-52.5 21.5zM867 156q-7 0 -14 -1.5t-13.5 -3.5t-13 -5.5t-12 -7.5t-10.5 -8.5t-9 -10t-7 -12t-5 -13t-3.5 -13.5
t-1.5 -14q0 -37 26 -63t63 -26t63 26t26 63q0 49 -42 75q-22 13 -47 14zM117 213q-56 -57 -50 -127q5 -67 67 -128q68 -68 140 -68q64 0 115 51l36 36l-272 271zM677 499q-6 7 -14.5 10t-17 3t-17 -3t-14.5 -10l-300 -299l63 -63l300 299q13 13 13 31.5t-13 31.5zM815 373
q38 116 109 317q9 26 -10.5 46t-46.5 10q-98 -34 -172.5 -59.5t-144.5 -48.5q-5 -2 -9.5 -5t-8.5 -6l-323 -323l63 -63l315 316q6 2 12.5 4t12.5 4l12 4l12 4l12 4q6 2 12.5 4t12 4t12 4t12.5 4l12 4l66 -65q-23 -66 -41 -121l-316 -315l63 -63l323 322q4 4 6.5 8.5t4.5 9.5
z" />
    <glyph glyph-name="uniE613" unicode="&#xe613;" 
d="M646 335v-35l69 241v-138l137 69l-68 206l-138 69l-12 -36q-40 -91 -126 -91q-22 0 -42 7t-33.5 18t-25 24.5t-18 27.5t-11 25t-6.5 18l-1 7l-138 -69l-68 -206l137 -69v138l69 -241v35h275zM646 300v-34h-275v34q-1 0 -3 -1.5t-8 -6.5l-11 -12l-15 -16q-10 -9 -18.5 -19
t-19.5 -23.5t-21 -27.5t-21 -31t-21 -35q-16 -30 -29.5 -62.5t-20.5 -57t-11.5 -45t-5.5 -30.5l-1 -11q5 -3 15 -7.5t44 -16.5t71 -21t95 -16.5t118 -7.5q192 0 331 63l13 6q-26 127 -68 206q-20 36 -54 79t-59 68z" />
    <glyph glyph-name="uniE614" unicode="&#xe614;" 
d="M717 750q-56 0 -87 -47q-16 -27 -17 -57v-727q0 -3 0.5 -7.5t4.5 -16.5t11 -21t21 -16.5t32.5 -7.5t32.5 7.5t21 16.5t10.5 21t4.5 17t1 7v346l138 2v232q0 29 -12.5 64t-32 67.5t-42.5 59.5t-46 43.5t-40 16.5zM475 473h-69v277h-139v-277h-69v277h-69v-316l7 -6
q4 -5 19 -16.5t30.5 -22t38 -22.5t43.5 -20v-428q0 -19 9.5 -35t25 -25t34.5 -9q14 0 27 5.5t22.5 14.5t15 22t5.5 27v430q15 6 31 14t29.5 17t25.5 18t21.5 17t16.5 14t10 10l4 4v307h-69v-277z" />
    <glyph glyph-name="uniE615" unicode="&#xe615;" 
d="M934 367q-13 17 -29 38t-59.5 64t-89 74.5t-112 57t-133 25.5t-133.5 -25.5t-112 -57t-88.5 -74.5t-60 -64t-28.5 -38q-22 -31 -22 -68.5t22 -68.5q12 -17 28.5 -38t59.5 -63t88.5 -73.5t112.5 -56.5t133.5 -25t133 25t112 56.5t88.5 73.5t60 63t29 38q21 31 21 68.5
t-21 68.5zM511 114q-48 0 -91 25.5t-68.5 68t-25.5 90.5q0 74 55.5 129.5t129.5 55.5q14 0 30 -3v-150h152q5 -26 5 -32q0 -74 -56 -129t-131 -55z" />
    <glyph glyph-name="uniE616" unicode="&#xe616;" 
d="M778 743h-518q-27 0 -46 -20t-19 -48v-751q0 -28 19 -48t46 -20h518q8 0 15 2t13.5 5t12 8t10 11t7.5 12.5t5 14t2 15.5v751q0 18 -9 34t-23.5 25t-32.5 9zM519 -76q-13 0 -25 5.5t-21 14.5t-14 22t-5 26q0 29 19 49t46 20t46 -20t19 -48.5t-19 -48.5t-46 -20zM713 129
h-389v477h389v-477z" />
    <glyph glyph-name="uniE617" unicode="&#xe617;" 
d="M798 725h-576l288 -289zM222 725l-192 -289h408zM990 436l-192 289l-216 -289h408zM38 364l472 -504l-216 504h-256zM510 -140l472 504h-256zM366 364l144 -504l144 504h-288z" />
    <glyph glyph-name="uniE618" unicode="&#xe618;" 
d="M846 434q-37 64 -94.5 119t-113 88t-105.5 57t-81 34l-31 10q1 -5 4 -13t7.5 -34t4.5 -52t-7 -62.5t-23 -70t-48.5 -70.5t-78.5 -68q-110 -72 -147 -160.5t7 -190.5q65 -141 280 -164l-3 1q-20 11 -39 28.5t-34.5 42t-25 52.5t-8.5 61.5t12 67.5t39 71.5t70 72.5
q-6 -21 -9.5 -50.5t-0.5 -49.5q8 -55 36.5 -73.5t60 -4t54.5 50.5q34 53 27 182q-1 19 -6.5 58t-7.5 41q6 -4 15 -10.5t31.5 -27.5t40 -44t33.5 -58.5t20 -72.5q5 -49 -2.5 -96.5t-28 -93t-59.5 -84.5t-94 -64q69 6 131 32.5t105.5 64.5t73 82t41.5 88q7 25 10 52t2 53.5
t-5 53.5t-11.5 53t-18 51t-23.5 47z" />
    <glyph glyph-name="uniE619" unicode="&#xe619;" 
d="M938 -30l-161 163q-7 7 -15 11t-17 6q68 98 68 218q0 102 -50 189t-135.5 137.5t-186.5 50.5q-44 0 -85.5 -10t-78 -28.5t-69 -44t-58 -58.5t-44 -70t-28 -79.5t-9.5 -86.5q0 -103 49.5 -190t135.5 -137.5t187 -50.5q127 0 228 79q2 -8 6 -15.5t11 -13.5l160 -163
q19 -19 46 -19t46 19t19 46.5t-19 46.5zM439 88q-114 0 -195 82.5t-81 198.5t81 198t195.5 82t195.5 -82t81 -198q0 -38 -10 -74.5t-28 -67t-43.5 -56.5t-55.5 -44t-66 -28.5t-74 -10.5z" />
    <glyph glyph-name="uniE61A" unicode="&#xe61a;" 
d="M70 528v-543q218 204 331 125q63 -45 75 -159q2 -18 2 -34v611q0 15 -3.5 32.5t-11.5 36t-20 35.5t-30.5 29t-41 17.5t-54 0.5t-67.5 -21t-82 -49t-98 -81zM956 526q-66 60 -127 96t-108 46t-87.5 6t-68.5 -21t-48 -39.5t-29.5 -45.5t-9.5 -42v-596q0 26 8 54t22.5 55.5
t37.5 48.5t52 36t67.5 15.5t81.5 -11.5t97 -45.5t112 -85.5v15q0 10 -0.5 39.5t-0.5 59.5v71v80q0 37 -0.5 77.5t0 72.5t0.5 58v42q0 14 1 14z" />
    <glyph glyph-name="uniE61B" unicode="&#xe61b;" 
d="M895 585q-6 -3 -15 -9q-12 23 -32.5 36.5t-45.5 13.5q-1 1 -3 3.5t-9 9t-15 13t-22 15t-30 16.5t-38.5 15.5t-47 13t-56.5 9t-66.5 3.5t-66.5 -3.5t-56.5 -9t-47 -13t-38.5 -15.5t-29.5 -16t-22.5 -15.5t-15 -13t-9 -9.5l-3 -3q-51 0 -78 -50q-4 3 -7.5 5t-5.5 3l-2 1h-4
q-2 0 -9 -1.5t-13.5 -3.5t-14.5 -7.5t-14 -12.5t-10 -18.5t-4 -25.5v-69h896l3 69q0 20 -7 34t-17.5 20.5t-20.5 10.5t-17 4h-7zM273 585l7 13q48 57 269 57q34 0 64 -4t50.5 -10t37 -13.5t27 -15t17 -13.5t9.5 -10l3 -4h-484zM65 378q0 -18 0.5 -26.5t2 -21.5t5 -19.5
t10 -13.5t16.5 -10t24 -3q6 0 11 1v-322q0 -38 23.5 -53.5t69.5 -15.5h575q46 0 69.5 15.5t23.5 53.5v322q6 -1 11 -1q16 0 26 5t15.5 11t8 19t3 22t0.5 28v3q0 1 -0.5 3t-0.5 3h-893zM687 32h-345v208h345v-208z" />
    <glyph glyph-name="uniE61C" unicode="&#xe61c;" 
d="M776 88q-49 -59 -105 -107.5t-88 -67.5l-31 -18q-29 -33 -42.5 -33t-42.5 33q-4 1 -12 4t-32.5 17t-49.5 33.5t-60.5 56.5t-68.5 82q-82 113 -130 230t-48 175q0 99 63.5 172.5t158.5 73.5q118 0 222 -117q20 20 37.5 35.5t40 31.5t44 26.5t47.5 17t53 6.5q38 0 73 -13
t61.5 -36.5t46.5 -54.5t30.5 -67.5t10.5 -74.5q0 -61 -51 -187.5t-127 -217.5zM789 326q26 35 36 65t10 66q0 31 -10.5 61t-28.5 52.5t-44.5 36t-55.5 13.5q-46 0 -97.5 -40t-88.5 -89q-37 50 -88.5 89.5t-97.5 39.5q-30 0 -56.5 -13.5t-44.5 -36t-28 -52t-10 -61.5
q0 -34 10.5 -62.5t35.5 -66.5q3 -6 8.5 -17.5t28.5 -49t51.5 -76.5t79.5 -98t111 -117q51 48 94.5 94t71 80.5t49.5 65t33.5 51.5t19 36t9.5 22z" />
    <glyph glyph-name="uniE61D" unicode="&#xe61d;" 
d="M514 745q-72 0 -140 -22.5t-123 -63.5t-96 -96t-63.5 -123t-22.5 -140q0 -91 35.5 -173.5t95 -142t142 -94.5t173 -35t173 35t142 94.5t94.5 142t35 173t-35 173t-94.5 142t-142 95t-173.5 35.5zM514.5 665q28.5 0 48 -20t19.5 -48.5t-19.5 -48.5t-48.5 -20
q-14 0 -26.5 5.5t-21.5 14.5t-14.5 22t-5.5 27q0 28 20 48t48.5 20zM217.5 232q-28.5 0 -48.5 20t-20 48q0 18 9 34t25 25t35 9q28 0 48 -20t20 -48t-20 -48t-48.5 -20zM699 479l-80 -251q22 -28 22 -77q0 -51 -37.5 -87.5t-89.5 -36.5q-51 0 -87.5 36.5t-36.5 87.5
q0 47 31 82t76 41l147 232q7 11 19.5 13.5t22.5 -3.5q21 -13 13 -37zM811 232q-28 0 -48 20t-20 48t20 48t48 20q19 0 34.5 -9t24.5 -25t9 -34q0 -41 -36 -60q-15 -8 -32 -8z" />
    <glyph glyph-name="uniE61E" unicode="&#xe61e;" 
d="M560 365h-96v-129h96v129zM750 365h-95v-129h95v129zM750 172h-95v-128h95v128zM369 172h-95v-128h95v128zM560 172h-96v-128h96v128zM903 618q-63 12 -153 22v45q0 27 -18.5 45.5t-45 18.5t-45 -18.5t-18.5 -45.5v-128q0 -29 21 -48h-5q-3 0 -11.5 1t-16.5 3t-18 7.5
t-17 14t-11.5 22.5t-4.5 32v64h-158v32q0 18 -8.5 32.5t-23 23t-31.5 8.5t-32 -8.5t-23.5 -23t-8.5 -32.5v-128q0 -28 22 -48h-3h-8q-6 0 -11.5 0.5t-13.5 3t-14.5 5.5t-13.5 9.5t-11.5 14.5t-7.5 20t-3 27v43q-11 -1 -21.5 -2.5t-19 -3t-16 -3t-13 -2t-10 -1.5t-6.5 -1.5
t-3 -0.5q-17 -4 -27.5 -17t-10.5 -30v-636q0 -11 5 -21t13.5 -17t19.5 -9q160 -36 389 -36q231 0 392 36q17 3 27.5 16.5t10.5 30.5v636q0 11 -5 21t-13.5 17t-19.5 9zM846 -29q-31 -5 -57 -8.5t-70 -8.5t-97.5 -8t-110.5 -3q-164 0 -332 28v458h667v-458z" />
    <glyph glyph-name="uniE61F" unicode="&#xe61f;" 
d="M851 543q-27 28 -83 51.5t-110 23.5q-10 0 -25.5 -14.5t-28 -31.5t-25.5 -32t-20 -15h-93q-7 0 -25.5 23.5t-40.5 46.5t-39 23q-49 0 -106.5 -22.5t-86.5 -52.5q-31 -32 -82.5 -184.5t-51.5 -229.5q0 -73 36.5 -117t70.5 -44q7 0 18 8t24.5 21t29.5 30t32.5 34.5
t33.5 34.5t32.5 30.5t30 21.5t24.5 8h287q20 0 55.5 -29.5t68 -64.5t64 -64.5t43.5 -29.5q30 0 68.5 51.5t38.5 114.5q0 65 -56 223t-84 186zM435 309h-92v-93h-93v93h-92v93h92v93h93v-93h92v-93zM729 495q19 0 32.5 -14t13.5 -33t-13.5 -32.5t-32.5 -13.5q-10 0 -18.5 3.5
t-14.5 9.5t-10 15t-4 18q0 8 2.5 15t6.5 12.5t10 10t13 7t15 2.5zM636 309q-19 0 -32.5 13.5t-13.5 32.5q0 13 6 23.5t16.5 17t23 6.5t23.5 -6.5t17 -17t6 -23.5q0 -9 -3.5 -18t-10 -15t-15 -9.5t-17.5 -3.5zM729 216q-10 0 -18.5 3.5t-14.5 9.5t-10 15t-4 18q0 6 1.5 11
t3.5 9.5t5.5 8.5t7.5 7.5t8.5 5.5t9.5 3.5t10.5 1.5t10.5 -1.5t9.5 -3.5t8.5 -5.5t7.5 -7.5t5.5 -8.5t3.5 -9.5t1.5 -11q0 -13 -6.5 -23.5t-17 -16.5t-22.5 -6zM821 309q-19 0 -32.5 13.5t-13.5 32.5q0 13 6 23.5t17 17t23 6.5q19 0 32.5 -14t13.5 -33t-13.5 -32.5
t-32.5 -13.5z" />
    <glyph glyph-name="uniE620" unicode="&#xe620;" 
d="M959 272q2 13 -7 24t-23 11h-32q-9 62 -38.5 124.5t-77.5 106.5q-85 76 -208 64q-34 -4 -69 -17t-70.5 -38t-64 -58t-49 -80.5t-25.5 -101.5h-63q13 119 84 216q-41 -9 -73 -30q-85 -55 -107 -186h-39q-14 0 -23 -11t-6 -24q6 -33 17 -63t22 -51.5t24.5 -41t24 -31.5
t21.5 -22t15.5 -13.5t7.5 -4.5q2 -2 4 -3t5 -2q123 -30 304 -30t305 30q5 2 9 5q8 5 20 15t39 45t45 77.5t28 89.5zM583 501q38 4 69.5 -6t58.5 -34q31 -28 52 -69.5t29 -84.5h-65q-17 70 -58 107q-33 29 -79 24q-25 -2 -45.5 -14t-35.5 -30q-5 -8 -3 -15q4 -11 21 -10
q18 4 35.5 1t30.5 -12q23 -16 33 -51h-160h-65q6 31 18.5 61t33.5 59.5t55 49.5t75 24z" />
    <glyph glyph-name="uniE621" unicode="&#xe621;" 
d="M360 676v-149h596v149h-596zM62 527h149v149h-149v-149zM62 229h149v149h-149v-149zM360 229h596v149h-596v-149zM62 -69h149v149h-149v-149zM360 -69h596v149h-596v-149z" />
    <glyph glyph-name="uniE622" unicode="&#xe622;" 
d="M511 345q34 0 55.5 21t21.5 52q0 16 -5.5 29.5t-17 24.5t-25 16.5t-30.5 5.5q-33 0 -55 -21.5t-22 -51.5q0 -33 21.5 -54.5t56.5 -21.5zM509 297q-41 0 -68 -27t-27 -68q0 -25 12 -49q6 -11 14.5 -20t20.5 -15.5t24.5 -10t25.5 -3.5q42 0 69.5 27t27.5 69q0 21 -7.5 38.5
t-21.5 31.5q-28 27 -70 27zM510.5 683q-78.5 0 -149.5 -30.5t-122 -82t-81.5 -122.5t-30.5 -149q0 -104 51 -192.5t139.5 -139.5t193.5 -51q78 0 149 30t122.5 81.5t81.5 122.5t30 149t-30 149t-81.5 122.5t-122.5 82t-149.5 30.5zM624 98q-21 -21 -49.5 -31.5t-63.5 -10.5
q-71 0 -114 42t-43 104q0 47 23.5 78t66.5 42q-12 5 -22 10.5t-18 12.5t-14 15q-17 25 -17 59q0 26 9.5 48t27.5 40q13 12 28 19.5t33 11.5t39 4q15 0 29 -2t26.5 -6.5t23.5 -11.5t21 -16q19 -18 28.5 -40t9.5 -48q0 -8 -1 -16t-3.5 -15t-5.5 -14t-8 -13q-8 -12 -21.5 -21.5
t-30.5 -16.5q43 -14 66 -45.5t23 -76.5q0 -61 -43 -102z" />
    <glyph glyph-name="uniE623" unicode="&#xe623;" 
d="M261.5 31q-34.5 0 -59 -24.5t-24.5 -59t24.5 -59t59 -24.5t59 24.5t24.5 59t-24.5 59t-59 24.5zM758 31q-35 0 -59.5 -24.5t-24.5 -59t24.5 -59t59.5 -24.5q22 0 41.5 11.5t30.5 30.5t11 41.5t-11 42t-30.5 30.5t-41.5 11zM920 571q-17 3 -30 0t-21.5 -10.5t-14 -15
t-7.5 -13.5l-2 -6q-48 -182 -72 -275q-5 -21 -12 -34t-13.5 -17t-11.5 -5.5t-8 -0.5l-4 2h-268q-25 0 -39 14t-15 27l-1 14l-3 272l-21 3h24v50q0 9 -2 17.5t-5.5 14t-8 10t-9.5 7.5t-10 5.5t-9.5 3.5t-8 1.5t-5.5 0.5h-2h-215q-2 0 -6 -0.5t-14 -3.5t-17.5 -8.5t-14 -16.5
t-6.5 -26q0 -24 14.5 -37.5t29.5 -15.5l14 -2h165v-385q0 -11 3.5 -19.5t8.5 -14t11.5 -10t12 -6.5t11.5 -3t8 -1.5t4 -0.5h433h6q4 0 14.5 3t19.5 8.5t18.5 17.5t13.5 28q28 119 103 352q1 3 2 7t1.5 15.5t-2.5 21t-13 19t-26 13.5z" />
    <glyph glyph-name="uniE624" unicode="&#xe624;" 
d="M254.5 30q-34.5 0 -59 -24.5t-24.5 -59t24.5 -59t58.5 -24.5q14 0 26.5 4.5t23 12t18 18t11.5 23t4 26.5q0 34 -24 58.5t-58.5 24.5zM749.5 30q-34.5 0 -58.5 -24.5t-24 -59t24 -59t59 -24.5q22 0 41.5 11.5t30.5 30.5t11 42q0 34 -24.5 58.5t-59 24.5zM912 568
q-18 4 -30.5 1t-21.5 -10.5t-14 -15.5t-7 -14l-3 -6q-47 -181 -71 -274q-5 -20 -12 -33.5t-13.5 -17.5t-11.5 -5.5t-8 0.5l-4 1h-267q-25 0 -39 14t-15 27l-2 14l-2 271l-21 3h24v50q0 17 -6 29t-15 18t-18 9t-15 4h-6h-214l-24 -5q-34 -14 -35 -50q0 -23 15 -37t29 -16
l15 -2h164v-384q0 -14 6 -25t14.5 -16.5t17.5 -8.5t15 -4h6h432q2 -1 6 -0.5t14.5 3.5t19.5 8t18 17t14 28q28 119 103 352q0 2 1 6.5t1.5 15.5t-2 20.5t-12.5 19t-26 13.5zM778 523h-329v-274h274z" />
    <glyph glyph-name="uniE625" unicode="&#xe625;" 
d="M253 180h512v366h73v146q0 20 -10 37t-26.5 26.5t-36.5 9.5h-512q-20 0 -37 -9.5t-27 -26.5t-10 -37v-146h74v-366zM911 473h-73v-366h-659v366h-73q-30 0 -51.5 -21.5t-21.5 -52.5v-366q0 -30 21.5 -51.5t51.5 -21.5v-146h147v146h512v-146h146v146q30 0 51.5 21.5
t21.5 51.5v366q0 15 -5.5 28.5t-15.5 23.5t-23.5 16t-28.5 6z" />
    <glyph glyph-name="uniE626" unicode="&#xe626;" 
d="M509 683q-104 0 -192 -51.5t-139 -139.5t-51 -192t51 -192t139 -139t192 -51t192 51t139.5 139t51.5 192q0 152 -104 262q-102 108 -249 120zM424 131v340l255 -170z" />
    <glyph glyph-name="uniE627" unicode="&#xe627;" 
d="M211 622l635 -635l-33 -33l-635 635zM846 589l-635 -635l-33 33l635 635z" />
    <glyph glyph-name="uniE628" unicode="&#xe628;" 
d="M-2 737h899v-898h-899v898zM37 700h819v-819h-819v819zM121 626h644v-644h-644v644z" />
    <glyph glyph-name="uniE629" unicode="&#xe629;" 
d="M123 710h778v-130h-778v130zM901 126h-194v-260h-390v260h-194l389 389z" />
    <glyph glyph-name="uniE62A" unicode="&#xe62a;" 
d="M512 684q-104 0 -192.5 -51.5t-140 -140t-51.5 -192.5t51.5 -192.5t140 -140t192.5 -51.5t192.5 51.5t140 140t51.5 192.5q0 78 -30.5 149t-82 122.5t-122.5 82t-149 30.5zM704 157l-49 -49l-143 144l-144 -144l-48 49l144 143l-144 144l48 48l144 -144l143 144l49 -48
l-144 -144z" />
    <glyph glyph-name="uniE62B" unicode="&#xe62b;" 
d="M896 620h-768q-27 0 -45.5 -18.5t-18.5 -45.5v-512q0 -27 18.5 -45.5t45.5 -18.5h768q27 0 45.5 18.5t18.5 45.5v512q0 27 -18.5 45.5t-45.5 18.5zM896 474l-218 -158l218 -164v-80l-272 205l-112 -81l-112 81l-272 -205v80l218 164l-218 158v80l375 -268l393 270v-82z
" />
    <glyph glyph-name="uniE62C" unicode="&#xe62c;" 
d="M863 611l25 6l-6 25q-11 41 -48 62t-78 10l-102 -27q-17 30 -49.5 44t-66.5 5l-148 -40q-23 -6 -40 -21t-26.5 -35.5t-9.5 -43.5l-102 -28q-41 -10 -62.5 -47t-10.5 -78l7 -25l25 7l6 -25l34 9v-470q0 -27 13.5 -51t37.5 -37.5t51 -13.5h410q21 0 40 8t32.5 22t22 33
t8.5 39v484h-52v-484q0 -5 -1 -10t-3 -9.5t-4.5 -8.5t-6 -7.5t-7.5 -6.5t-8.5 -5t-10 -3t-10.5 -1h-410q-10 0 -20 4t-17.5 11t-12 16.5t-4.5 19.5l3 483l14 4v1l594 159zM403 646l148 40q7 2 14 2t13.5 -2t12 -5.5t10.5 -7.5l-234 -63q2 9 7 16t12.5 12.5t16.5 7.5z
M189 456q-6 21 5 39.5t31 23.5l544 146q14 3 27 -0.5t22.5 -13t13.5 -22.5zM493 298v-282q0 -10 7.5 -17.5t18 -7.5t18 7.5t7.5 17.5v282q0 5 -2 10t-5.5 8.5t-8.5 5.5t-10 2q-10 0 -17.5 -7.5t-7.5 -18.5zM646 298v-282q0 -10 7.5 -17.5t18.5 -7.5t18.5 7.5t7.5 17.5v282
q0 11 -7.5 18.5t-18.5 7.5q-5 0 -10 -2t-8.5 -5.5t-5.5 -8.5t-2 -10zM339 298v-282q0 -7 3.5 -12.5t9.5 -9t13 -3.5q4 0 8 1t7 3.5t5.5 5.5t3.5 7t1 8v282q0 7 -3.5 13t-9 9.5t-12.5 3.5t-13 -3.5t-9.5 -9.5t-3.5 -13z" />
    <glyph glyph-name="uniE62D" unicode="&#xe62d;" 
d="M343 18q12 0 20 8.5t8 19.5v310q0 4 -1 8t-3 7t-4.5 5.5t-5.5 4.5t-6.5 3t-7.5 1q-3 0 -6.5 -1t-6 -2.5t-5 -3.5t-4.5 -4t-3.5 -5t-2 -6t-0.5 -7v-310q0 -11 8 -19.5t20 -8.5zM512 18q8 0 14.5 4t10 10.5t3.5 13.5v310q0 12 -8 20.5t-20 8.5t-20 -8.5t-8 -20.5v-310
q0 -11 8 -19.5t20 -8.5zM681 18q12 0 20 8.5t8 19.5v310q0 8 -3.5 14.5t-10 10.5t-14.5 4q-6 0 -11 -2.5t-9 -6t-6 -9t-2 -11.5v-310q0 -21 20 -27q5 -1 8 -1zM822 666h-117q-6 25 -21.5 44t-38.5 30t-48 11h-170q-25 0 -48 -11t-38.5 -30t-21.5 -44h-117q-47 0 -80 -33
t-33 -79v-28h28v-29h57v-535q0 -31 15 -57t41 -41t56 -15h452q46 0 79 33t33 80v535h57v29h28v28q0 46 -33 79t-80 33zM427 695h170q32 0 48 -29h-266q16 29 48 29zM794 -38q0 -24 -16.5 -40.5t-39.5 -16.5h-452q-23 0 -41.5 17t-18.5 40l4 535h564v-535zM146 554
q0 23 16.5 39.5t39.5 16.5h620q23 0 39.5 -16.5t16.5 -39.5h-732z" />
    <glyph glyph-name="uniE62E" unicode="&#xe62e;" 
d="M846 439l-334 -334l-33 33l334 333zM511 106l-333 332l33 33l333 -332z" />
    <glyph glyph-name="uniE62F" unicode="&#xe62f;" 
d="M92 748h359q11 -1 17 -7.5t8.5 -21t3 -24t0 -30t-0.5 -25.5v-196q0 -8 0.5 -26t0.5 -27.5t-2 -22.5t-6.5 -20.5t-13 -11t-25 -4t-39.5 0.5t-28 1h-191q-7 0 -17 -0.5t-18 -0.5h-18q-9 0 -16.5 0.5t-15 2.5t-12.5 5t-9 8.5t-5 11.5v360q8 21 28 27v0zM141 667v-256h259
v260h-258l-1 -4v0zM574 748h360q11 -4 18 -12t9 -20v-350q-5 -25 -25 -31q-11 -3 -26 -3t-35.5 1t-28.5 1h-185q-8 0 -29 -1t-37 -1t-26 3q-9 3 -14.5 11t-7 22t-2 24.5t0 30t0.5 26.5v184v17q0 9 -0.5 16.5t-0.5 16.5t0.5 16t1.5 14.5t3 13t5 10t8 7.5t11 4v0zM624 667
v-256h259v260h-258q-1 0 -1.5 -1t0.5 -3v0zM259 592q27 5 46 -10t20 -40q0 -31 -26 -46.5t-53 -2.5q-19 10 -25.5 32t4 42.5t34.5 24.5v0zM742 592q44 8 59 -29q13 -32 -9 -58q-18 -22 -50 -16q-26 4 -36 27.5t0 47t36 28.5v0zM449 -149h-356q-23 7 -29 29v358q7 21 24 26
q11 3 26 3t35.5 -1t29.5 -1h184q8 0 28.5 1.5t36.5 1t27 -3.5q9 -3 15 -10.5t8 -21.5t2 -24.5t-0.5 -30t-0.5 -26.5v-189q0 -7 0.5 -28t0 -30.5t-3 -23.5t-9.5 -20.5t-18 -8.5v0zM141 184v-255h259v259h-258q-1 0 -1 -4v0zM961 233v-100q-1 -8 -1 -53v-55h-257v58
q-5 2 -38.5 1.5t-40.5 -0.5q-2 -19 -1.5 -115t-0.5 -118h-47q-11 3 -18 10.5t-9.5 21.5t-2.5 24.5t0.5 30.5t0.5 29v184q0 7 -0.5 18t-1 20t-0.5 19.5t1 19t3 15.5q1 5 4 9t9 6.5t10 4t13 2t13 0.5h15h15h175v-158h81v53v54q0 29 1 51q12 1 23 1t20.5 -1.5t17 -5t12 -10
t4.5 -16.5v0zM265 111q30 3 48.5 -20t7.5 -53q-10 -27 -39 -31.5t-50 15t-12.5 52.5t45.5 37v0zM790 -149h-87q1 18 0.5 32t-0.5 31.5t1 29.5h86v-93v0zM961 -56v-61q-5 -24 -29 -32h-61v16v15v16v16v16q0 7 1 14h89v0zM961 -56z" />
    <glyph glyph-name="uniE630" unicode="&#xe630;" 
d="M272 79q-27 31 14.5 133.5t94.5 158.5q10 11 25.5 27t33.5 33.5t38 37.5l40 39q19 20 37.5 39t35 34.5t28.5 27.5l19 19l7 7h-567v-781h486l183 179v331q-88 -87 -182 -178q-34 -33 -80 -61t-87.5 -42.5t-77 -17.5t-48.5 14zM474 364l85 -85l300 299l-86 86zM859 749
l-63 -63l86 -85l62 63zM344 149q11 -11 59.5 16t91 58.5t42.5 32.5l-86 85l-13 -17q-14 -17 -32 -43t-35 -53t-25.5 -49.5t-1.5 -29.5z" />
    <glyph glyph-name="uniE631" unicode="&#xe631;" 
d="M841 562q-6 7 -1 15t16.5 15t26.5 15.5t28.5 16t23 16t9.5 16.5q0 22 -52.5 39.5t-128.5 26t-142.5 12.5t-110.5 4q-61 0 -119 -16t-107.5 -44.5t-90.5 -70t-70 -90.5t-45 -107.5t-16 -119.5q0 -52 11.5 -102.5t33.5 -94.5t53 -83t69.5 -69.5t83 -52.5t94.5 -34t103 -12
q73 0 141 23t123.5 64t96.5 96.5t64 123.5t23 141q0 51 -17.5 102t-41 89t-58.5 81zM579 620q33 0 53 -33q2 -3 -0.5 -7.5t-8.5 -9.5t-13.5 -10t-15 -9.5t-14 -8t-10.5 -5.5l-4 -2l51 -24q21 -13 20 -20q-9 -19 -24.5 -30t-33.5 -11q-29 0 -48.5 25t-19.5 60q0 23 9 42.5
t24.5 31t34.5 11.5zM373 620q16 0 30 -9t24 -24q1 -3 0 -6t-5 -6.5t-8.5 -7.5t-10.5 -8t-12 -7.5t-11.5 -6.5t-10 -5.5t-6.5 -3.5l-3 -1l51 -24q22 -13 21 -20q-9 -19 -25 -30t-34 -11q-28 0 -48 25t-20 60q0 11 2.5 22t7 20.5t10.5 17.5t13.5 13t16.5 8.5t18 3.5zM573 47
q-82 0 -148.5 45t-96.5 117l14 -14q10 -10 16 -15l20 -17q13 -11 24.5 -17.5t30.5 -14.5t38.5 -13t46 -8.5t55.5 -3.5q20 0 42.5 7t45 18.5t43 29.5t36 39t25 47.5t9.5 53.5q0 10 -19 17.5t-19 15.5t25.5 13t51.5 -4t26 -34q0 -108 -78 -185t-188 -77z" />
    <glyph glyph-name="uniE632" unicode="&#xe632;" 
d="M781 84q-23 -28 -48 -54t-47 -45t-42.5 -36t-36.5 -28t-28.5 -19t-18.5 -12l-7 -3q-30 -33 -43.5 -33t-43.5 33l-37 16q-99 55 -190 181q-84 114 -132.5 233t-48.5 179q0 101 64.5 175.5t161.5 74.5q120 0 226 -119q55 55 108.5 87t117.5 32q97 0 161.5 -74.5
t64.5 -175.5q0 -62 -52 -191t-129 -221z" />
    <glyph glyph-name="uniE633" unicode="&#xe633;" 
d="M617 535h-213q-56 0 -102 -26t-64.5 -66t-3.5 -78q10 -24 26.5 -42t28.5 -27t21 -34t9 -66.5t-4.5 -65.5t-10.5 -32.5t-14 -26.5t-13 -46q-8 -42 9.5 -81t60 -63.5t100.5 -24.5q91 0 174.5 46.5t122.5 122.5q15 29 29 70.5t24 79.5t17.5 72.5t11 54.5t3.5 21
q0 96 -72 160q-61 52 -140 52zM362 641q0 15 -4 28.5t-10.5 25.5t-16.5 21.5t-21.5 16.5t-25.5 11t-28 4q-29 0 -53.5 -14.5t-39 -39t-14.5 -53t14.5 -53t39 -39t53.5 -14.5q57 0 88 48q18 27 18 58zM468 620q26 0 45 19t19 45t-19 45t-45 19q-6 0 -12.5 -1.5t-12 -4t-11 -6
t-9.5 -7.5t-7.5 -9.5t-6 -11t-4 -12t-1.5 -12.5q0 -10 3.5 -20t9.5 -18t13.5 -13.5t17.5 -9t20 -3.5zM638 578q26 0 45 18.5t19 45t-19 45t-45 18.5q-13 0 -25 -5t-20.5 -13.5t-13.5 -20.5t-5 -25q0 -26 19 -44.5t45 -18.5zM808 620q-27 0 -45.5 -18.5t-18.5 -45.5
q0 -17 8.5 -31.5t23.5 -23t32 -8.5q26 0 45 18.5t19 44.5q0 11 -3.5 20.5t-9.5 17.5t-13.5 14t-17.5 9t-20 3z" />
    <glyph glyph-name="uniE634" unicode="&#xe634;" 
d="M711 -116q-24 17 -75 51.5t-90 60.5l-39 25q-159 -118 -212 -154q-27 -16 -51 -15t-36 24.5t-2 58.5l68 252q-134 97 -185 139q-25 20 -26.5 50.5t18 53.5t50.5 24q10 0 225 10q55 165 75 230q9 32 34.5 45t52.5 0.5t40 -48.5q13 -33 33.5 -88.5t34.5 -94.5l14 -38
q20 0 50.5 -0.5t95.5 -1t93 -0.5q31 0 50.5 -20t18.5 -48t-25 -49q-22 -20 -69.5 -58.5t-84.5 -67.5l-36 -29q2 -8 6.5 -21t15.5 -49t21 -67t20 -64t15 -50q9 -29 -6 -51t-40.5 -24.5t-53.5 14.5z" />
    <glyph glyph-name="uniE635" unicode="&#xe635;" 
d="M891 535q1 2 2 6.5t2.5 18.5t1.5 27.5t-3 32t-9 35t-18 33.5t-29 30q-23 18 -50 24.5t-49 3t-41 -9.5t-29 -13l-11 -6l-52 10q-177 20 -318 -83q-53 -39 -96 -94q-142 -178 -98 -395q13 -65 35 -107q-1 -2 -2.5 -6t-4.5 -17t-5 -25.5t-2 -30t3.5 -33t12.5 -31.5t24 -27
q40 -29 82.5 -25.5t76 15t33.5 13.5q6 -2 16 -4.5t42.5 -6t65.5 -3t80 10t91 28t94 55t93 87.5q149 178 102 383q-15 64 -40 104zM677 38q-180 -122 -320 -94q-27 5 -41 14q9 2 25.5 7.5t63 24.5t89.5 40.5t95 56t88 71.5q37 36 67 82.5t46.5 86t28 76t15.5 55t4 20.5
q1 -4 2.5 -10.5t4 -27t3.5 -42t-1 -53t-7.5 -60.5t-18 -64t-30.5 -65.5t-47 -61.5t-67 -56z" />
    <glyph glyph-name="uniE636" unicode="&#xe636;" 
d="M836 686h-647q-8 0 -15.5 -2t-14 -4.5t-13 -7t-11.5 -9.5t-9 -11t-7 -13t-4.5 -14.5t-1.5 -15.5v-456q0 -32 22 -54t54 -22h76v-229l228 229h343q31 0 53.5 22t22.5 54v456q0 32 -22.5 54.5t-53.5 22.5zM341 419q-18 0 -37 9.5t-29 19.5l-10 9v38h152v-38
q-4 -4 -11 -10.5t-27 -17t-38 -10.5zM569 229l-3 13q-1 7 -7 26.5t-12.5 34.5t-16 27.5t-18.5 12.5q-14 0 -28 -28.5t-22 -57.5l-7 -28l-38 38q2 5 4.5 12.5t12 27t20 34.5t26.5 27.5t32 12.5q13 0 25 -6t21 -16.5t17 -22.5t14 -24t10 -22t7 -17l2 -6zM760 457
q-4 -4 -11 -10.5t-27 -17t-38 -10.5t-37 9.5t-29 19.5l-10 9v38h152v-38z" />
    <glyph glyph-name="uniE637" unicode="&#xe637;" 
d="M858 715h-693q-33 0 -57 -23.5t-24 -57.5v-489q0 -34 24 -57.5t57 -23.5h82v-245l244 245h367q11 0 21.5 2.5t19.5 8t16.5 13t13 16.5t8 19.5t2.5 21.5v489q0 34 -23.5 57.5t-57.5 23.5zM308 430q-25 0 -43 18t-18 43q0 17 8 31t22 22.5t31 8.5q25 0 43 -18t18 -44
q0 -16 -8 -30t-22 -22.5t-31 -8.5zM512 227q-11 0 -21.5 12.5t-17.5 30.5t-12 36t-8 30l-2 13q0 1 1.5 4t7 10t12 12.5t17.5 10t23 4.5t22.5 -4.5t17.5 -10.5t12 -12t7 -10l2 -4q-1 -5 -2.5 -13.5t-7.5 -29.5t-12.5 -37t-17 -29t-21.5 -13zM715 430q-16 0 -30 8.5
t-22.5 22.5t-8.5 30.5t8.5 30.5t22.5 22.5t30 8.5q26 0 44 -18t18 -43.5t-18 -43.5t-44 -18z" />
    <glyph glyph-name="uniE638" unicode="&#xe638;" 
d="M361 622l334 -334l-33 -33l-333 334zM694 287l-332 -333l-33 33l332 333z" />
    <glyph glyph-name="uniE639" unicode="&#xe639;" 
d="M663 -46l-334 334l33 33l333 -334zM330 289l332 333l33 -33l-332 -333z" />
    <glyph glyph-name="uniE63A" unicode="&#xe63a;" 
d="M178 137l334 334l33 -33l-334 -333zM513 470l333 -332l-33 -33l-333 332z" />
    <glyph glyph-name="uniE63B" unicode="&#xe63b;" 
d="M511 748q-91 0 -174 -35.5t-143 -95.5t-95.5 -142.5t-35.5 -174.5q0 -40 7 -80t21 -76t33 -69.5t44 -62.5t54 -54t62.5 -44.5t70 -33t76 -20.5t80.5 -7q91 0 174 35t143 95t95.5 143t35.5 174q0 186 -131.5 317t-316.5 131zM373 611l20 -40l13 3l-2 37l52 1l1 -38h26
l1 38l52 -1l-1 -37l13 -3l20 40l38 -5l-58 -120h-156l-58 120zM349 468h253q5 0 10 -2t8.5 -5.5t5.5 -8t2 -9.5q0 -11 -7.5 -18.5t-18.5 -7.5h-253q-11 0 -18.5 7.5t-7.5 18.5q0 7 3.5 13t9.5 9t13 3zM648 -11h-116h-3h-4h-4h-3h-4h-3h-4h-4h-3h-4h-3h-4h-4h-3h-4h-4h-3h-4
h-3h-4h-4h-3h-4h-3h-4h-4h-3h-4h-4h-3h-4h-3h-116q-29 12 -46 33.5t-23 50.5q45 195 138 326h209q93 -131 138 -326q-6 -29 -23 -50.5t-46 -33.5zM843 49q-4 -3 -12 -5l5 -3q2 -3 2 -5v-27q0 -3 -3 -5q-5 -5 -18 -7q-17 -3 -40.5 -3t-40.5 3q-14 2 -19 7q-2 2 -2 5v27
q0 1 0.5 2.5t1.5 2.5q2 2 5 3.5t8 2.5q-3 1 -5 2q-2 3 -2 6v26q0 3 2 5t5 4q-4 1 -7.5 2.5t-5.5 3.5t-2 5v27q0 3 2 5q1 1 3 2l4 2q-7 2 -10 5q-2 1 -2.5 2.5t-0.5 2.5v27q0 3 3 5l2 2h-1q-14 3 -19 7q-3 3 -3 6v26l2 5q6 5 20 8h2l-2 2q-2 2 -3 5v27q1 2 3 5q1 1 3 2t4.5 2
t5.5 1.5t6 1.5q17 3 40.5 3t40.5 -3q13 -2 19 -7q2 -3 2 -5v-27l-3 -5q-5 -5 -18 -7l-2 -1h-1l2 -2q3 -2 3 -5v-26q-1 -4 -3 -6q-1 -1 -2 -1v-1h1q7 -1 12 -2.5t7.5 -4t2.5 -5.5v-27l-1 -3l-2 -2t-3 -2l-4 -2q7 -2 11 -5q2 -3 2 -5v-27q0 -4 -2.5 -5.5t-5.5 -2.5
q10 -3 14 -6q2 -3 2 -6v-26q0 -4 -3 -6z" />
    <glyph glyph-name="uniE63C" unicode="&#xe63c;" 
d="M509 750q-45 0 -89.5 -9t-84.5 -26t-76 -41.5t-66.5 -54.5t-55 -66.5t-41 -76.5t-26 -84t-9.5 -90q0 -91 35.5 -174t95.5 -143t143 -95.5t174.5 -35.5t174.5 35.5t143 95.5t95.5 143t35.5 174t-35.5 174t-95.5 143t-143 95.5t-175 35.5zM214 439q-1 18 5 35l77 -50l41 17
l1 45l-67 48q9 5 19.5 7.5t20.5 2.5q42 2 73 -26.5t33 -70.5q1 -14 -3 -28l70 -66l-24 -32l22 -25l-28 -29l-93 85q-10 -5 -20.5 -7.5t-21.5 -3.5q-42 -2 -73 27t-32 71zM773 58l-27 -29q-5 -4 -11 -4.5t-10.5 1.5t-9 4.5t-6.5 5.5l-2 2l-199 180l27 27l25 -23l34 26
l166 -158q9 -8 12.5 -16t2.5 -12zM653 345l-49 -13l-3 -58l-40 -30l-26 23l-154 -147l-1 -22l-49 -30l-37 -21l-12 10l22 36l30 50h22l149 153l-24 26l31 40l58 2l14 49l130 140l80 -79zM726 89q-3 0 -5 -0.5t-4 -2t-3.5 -3t-2.5 -3.5t-1.5 -4.5t-0.5 -4.5q0 -8 5.5 -12.5
t12.5 -4.5q5 0 9 2.5t6 6.5t2 9q0 7 -5.5 12t-12.5 5z" />
    <glyph glyph-name="uniE63D" unicode="&#xe63d;" 
d="M583 364q-21 8 -42 -2t-30 -27q-9 17 -30 27t-42 2q-10 -3 -18 -9t-13.5 -14t-8.5 -17.5t-3 -19.5q0 -23 12 -47t28.5 -41.5t34 -31.5t28.5 -21.5t12 -7.5q5 3 12.5 8t27 20.5t34.5 32t27.5 40.5t13.5 48q0 10 -3 19.5t-8.5 17.5t-13.5 14t-18 9zM537 425l1 -1h3h4
t8.5 0.5t9 1.5t9.5 3t9.5 4t8.5 5t8 5.5t8 6.5q17 16 17 33q0 4 -1 6.5t-1.5 3.5t-1.5 2q-2 2 -4 3t-4.5 1.5t-4.5 0.5h-3q-10 0 -21 -4.5t-19 -12.5q-15 -14 -22 -33t-4 -25zM477 424h5h3l1 1q3 6 -4.5 25t-22.5 33q-18 17 -40 17q-10 0 -16 -5l-1 -1t-1.5 -2.5t-1 -3.5
t-0.5 -5q0 -17 17 -33q12 -12 29.5 -19t31.5 -7zM511 747q-73 0 -141 -22.5t-123 -64t-96.5 -96t-64 -123t-22.5 -141.5q0 -91 35.5 -173.5t95.5 -142.5t142.5 -95.5t173.5 -35.5t174 35.5t143 95.5t95.5 142.5t35.5 173.5t-35.5 174t-95.5 143t-143 95t-174 35zM757 273
h-43v-204h-408v204h-42v148h130l-1 1l-1 1q-25 23 -29 52t16 46q7 8 17.5 11.5t22.5 3.5q36 0 65 -27q8 -8 15 -17.5t12 -19.5q11 22 27 37q29 27 65 27q25 0 40 -15q13 -11 15.5 -28.5t-5 -36t-23.5 -33.5l-1 -1l-1 -1h129v-148z" />
    <glyph glyph-name="uniE63E" unicode="&#xe63e;" 
d="M678 381h25v7h-25v23h27v7h-35v-69h37v7h-29v25zM360 464h-80q-41 0 -64 -23q-12 -12 -15.5 -27.5t-3.5 -37.5v-66q0 -9 6 -15t14 -6h150q6 0 10.5 4.5t4.5 10.5v138q0 4 -1.5 8t-5.5 7q-6 7 -15 7zM813 413h-65q-3 0 -5.5 -1.5t-4 -4t-1.5 -5.5v-37q0 -5 3 -8t8 -3h65
q10 2 11 11v37q-2 10 -11 11zM628 381h25v7h-25v23h27v7h-35v-69h37v7h-29v25zM513 349h8v31h25v7h-25v24h27v7h-35v-69zM512.5 745q-90.5 0 -173.5 -35t-142.5 -95t-95 -142.5t-35.5 -173.5t35.5 -173.5t95 -142.5t142.5 -95t173.5 -35t173.5 35t142.5 95t95 142.5
t35.5 173.5t-35.5 173.5t-95 142.5t-142.5 95t-173.5 35zM502 495h315q4 0 7.5 -1.5t5.5 -5t3 -6.5h-346q2 13 15 13zM487 478h346v-2h-346v2zM487 474h346v-176h-346v176zM487 294h346v-11q0 -6 -4.5 -11t-11.5 -5h-315q-6 0 -10.5 5t-4.5 11v11zM330 103q-15 0 -28 7.5
t-20.5 20.5t-7.5 28q0 24 16.5 40.5t39.5 16.5q12 0 22.5 -4.5t18 -12t12 -18t4.5 -22.5q0 -23 -16.5 -39.5t-40.5 -16.5zM457 171q0 -6 -4.5 -10.5t-10.5 -4.5h-40v1l1 1q0 30 -21 50.5t-50.5 20.5t-50.5 -20.5t-21 -50.5v-2h-65q-4 0 -7.5 1.5t-6.5 4.5q-6 6 -6 15v215
q0 17 6.5 34t19.5 30q27 26 65 26h168q5 0 9 -1.5t7 -4.5q7 -7 7 -16v-289zM664.5 103q-15.5 0 -28.5 7.5t-20.5 20.5t-7.5 28q0 24 16.5 40.5t40 16.5t40 -16.5t16.5 -40.5q0 -15 -7.5 -28t-20.5 -20.5t-28.5 -7.5zM842.5 165.5q-7.5 -8.5 -18.5 -8.5h-89v1q0 30 -21 50.5
t-50.5 20.5t-50 -20.5t-20.5 -50.5v-1h-107q-3 0 -5.5 1t-4.5 4q-4 5 -5 10v57q0 10 6.5 16.5t15.5 6.5h338q8 0 13.5 -6t5.5 -15v-45q0 -12 -7.5 -20.5zM595 374q0 1 -1 2l-1 1l-2 2q-2 1 -3 2q3 1 6 2.5t5 4t3 5.5t1 7q0 2 -0.5 4t-1.5 4l-4 6l-7 3q-4 1 -8 1h-21v-69h8
v30h7q2 0 4 -1t3.5 -2t3.5 -3q0 -1 1 -2t2 -3l11 -19h10l-13 21q-1 2 -3 4zM586 387q-3 -1 -6 -1h-11v25h11q4 0 6.5 -1t4.5 -2q3 -3 3 -9l-1 -5q-1 -3 -3 -5z" />
    <glyph glyph-name="uniE63F" unicode="&#xe63f;" 
d="M411 274q-21 -21 -33 -49t-12 -59q0 -63 44.5 -108t108 -45t108 45t44.5 108t-45 108q-21 21 -49 32.5t-59 11.5q-63 0 -107 -44zM548 62h-45v152h-18v31q10 1 17 8q7 9 7 17h39v-208zM513 750q-91 0 -174 -35t-143 -95t-95.5 -143t-35.5 -174t35.5 -174t95.5 -142.5
t143 -95t174 -35.5t173.5 35.5t142.5 95t95.5 142.5t35.5 174t-35.5 174t-95.5 143t-142.5 95t-173.5 35zM710 580l-135 -185l-12 17l123 168h24zM673 580l-117 -159l-11 15l104 144h24zM610 580h26l-98 -135l-15 20zM415 580l153 -204h-154l-153 204h154zM625 393h9v-9v-70
l4 -4q2 -2 4.5 -4t4.5 -4l4 -4q26 -26 40.5 -60t14.5 -72q0 -78 -55 -133q-26 -25 -60 -39.5t-73 -14.5q-77 0 -132 54.5t-55 132t55 132.5q7 7 14 13v56l6 -8h11v-36q46 30 101 30q27 0 52 -7t46 -20v49h-26l-8 11l142 194h40l-141 -187h2z" />
    <glyph glyph-name="uniE640" unicode="&#xe640;" 
d="M-3 -41zM156 261v-409h247v277h216v-277h246v409h137l-491 485l-492 -485h137zM1025 -41z" />
    <glyph glyph-name="uniE641" unicode="&#xe641;" 
d="M766 749h-497q-42 0 -71 -29t-29 -70v-696q0 -41 29 -70t71 -29h497q41 0 70 29t29 70v696q0 41 -29 70t-70 29zM517 -95q-21 0 -35.5 14.5t-14.5 35t14.5 35t35.5 14.5t35.5 -14.5t14.5 -35t-14.5 -35t-35.5 -14.5zM766 54h-497v596h497v-596zM670 558h-98l-62 -86
l-62 86h-98l107 -160h-107v-54h107v-53h-107v-54h107v-106h106v106h107v54h-107v53h107v54h-107z" />
    <glyph glyph-name="uniE642" unicode="&#xe642;" 
d="M849 82q-10 11 -37 22.5t-60 21t-65 18.5t-58 18t-33 16q-1 8 -1.5 16.5t-1 16t-0.5 15.5q23 19 42 49t34 70q27 2 44.5 15.5t22 31t4 33t-5.5 25.5q-11 23 -31 3q9 23 14.5 50t6.5 53.5t-3.5 52.5t-14.5 45q-2 4 0.5 5t7 4t5.5 10q-8 2 -21.5 14.5t-30 26.5t-56.5 25.5
t-94 11.5q-32 0 -52 -2t-38.5 -9.5t-26.5 -20.5q-6 -4 -15 1.5t-9 18.5q-9 -14 -6.5 -27.5t1.5 -14.5q-18 5 -36.5 -16t-29.5 -45.5t-16 -46.5q-4 -18 0 -43t12 -49.5t18 -43.5q-29 18 -40 -9q-12 -37 -0.5 -65t35 -42t36.5 -1q33 -67 71 -104q0 -30 -1 -55q-13 -12 -70 -28
t-112 -37t-69 -46q-32 -59 -32 -101q6 -5 17.5 -12.5t49 -27t78.5 -34.5t104.5 -27t128 -12t126.5 11.5t104 28t75.5 33t49.5 28.5l15 12q0 8 -1.5 22t-10.5 45t-24 50z" />
    <glyph glyph-name="uniE643" unicode="&#xe643;" 
d="M961 535q-1 0 0 4t-1 10.5t-5 13.5t-10.5 13.5t-19.5 10.5q-19 7 -113 40t-179 63l-85 30l-9 3q-6 2 -24 3.5t-33 -5.5q-7 -3 -32.5 -12t-60.5 -21t-75.5 -26.5t-79.5 -28t-70.5 -24.5t-51.5 -18l-19 -7q-4 -1 -8.5 -4t-12 -13t-7.5 -22v-569q1 0 0 -3.5t1.5 -9t6 -11
t13 -10.5t22.5 -6q48 -6 381 -54q14 -4 58 0q8 1 34 5t59.5 9t72.5 10.5t76.5 11t67.5 10.5t49 8l18 2q2 1 4.5 1.5t8.5 3.5t11 7t9 11.5t4 16.5v42v84v107v115v104v76q0 30 0 29zM463 609v-634q0 -13 -7 -14q-4 0 -10.5 1t-26.5 3.5t-40 4.5t-47 5.5t-50.5 6.5t-48.5 6
t-43.5 5t-31.5 3.5t-17 2.5q-11 1 -16 5.5t-5 7.5v4q0 480 0.5 490.5t10.5 13.5q26 12 85 30v-157l59 113l73 -89v174q84 26 91.5 28.5t12 2t7 -2.5t3.5 -4t1 -4v-2zM851 227h-79v-80q0 -10 -4 -19.5t-11 -16.5t-16.5 -11t-19.5 -4q-21 0 -36 15t-15 36v80h-79
q-21 0 -36 14.5t-15 35.5t15 36t36 15h79v79q0 14 7 25.5t18.5 18.5t25.5 7q21 0 35.5 -15t14.5 -36v-79h80q21 0 36 -15t15 -36t-15 -35.5t-36 -14.5z" />
    <glyph glyph-name="uniE644" unicode="&#xe644;" 
d="M917 -152l-226 194h-2q58 0 93.5 23t35.5 74v419q0 31 -7.5 58t-28 52.5t-52.5 43.5t-83.5 29t-118.5 11q-291 0 -291 -194v-419q0 -18 4.5 -32.5t13 -25t20 -18t26.5 -12.5t31 -7t34 -2l-226 -194h711v1l1 -1h65zM722 177q-5 -13 -21 -20.5t-30 -2.5t-14 23v61
q0 7 6.5 16t16 16.5t19 14.5t16.5 11l7 4q13 0 22.5 -9t9.5 -22q1 -1 -32 -92zM664 9h-271l38 33h195zM527.5 720q4.5 0 9 -1t8 -3.5t6.5 -5.5t5 -6.5t3 -7.5t1 -8q0 -14 -9.5 -23.5t-22.5 -9.5q-7 0 -13 2.5t-10 7t-7 10.5t-3 13q0 23 23 30q5 2 9.5 2zM302 558q0 27 19 46
t45 19h323q27 0 46 -19t19 -46v-64q0 -27 -19 -46t-46 -19h-161h-162q-26 0 -45 19t-19 46v64zM334 171l-32 97q0 13 9.5 22.5t22.5 9.5q3 -2 7 -4.5t15.5 -10.5t20 -16t15.5 -17.5t7 -16.5v-64q0 -19 -14 -24t-30 2.5t-21 21.5zM366 -14v-9h323v10l50 -42h-421zM242 -120
l38 32h497l37 -32h-572z" />
    <glyph glyph-name="uniE645" unicode="&#xe645;" 
d="M505 320q7 0 13.5 1t12.5 2.5t12 3.5q5 3 13.5 8t26.5 22t26 35q8 20 8 41q0 8 -1 15t-3 14q-13 1 -31 -2.5t-32.5 -7t-32 -4.5t-31 3t-26.5 17t-22 35q-7 1 -13 -4t-10 -14.5t-7 -19t-7 -23.5t-7 -22q3 -28 18.5 -50.5t40 -36t52.5 -13.5zM694 188q-1 13 -10 17.5
t-17 2.5l-8 -2q2 2 4 5.5t4.5 13t2 16.5t-8.5 13t-24 5q-3 0 -6 -7.5t-6 -17.5t-12 -21t-22 -16v5h-10q-1 0 -2 -2t-1.5 -4.5t-0.5 -6.5v-58q0 -13 4 -13h10v3v1v-1q8 0 15.5 -2.5t13 -5t15 -5t21.5 -2.5q19 0 24.5 10t2.5 20q8 1 9.5 15.5t-6.5 16.5q7 6 8 20zM669 139
q5 -5 2 -14t-16 -9q-12 0 -33.5 9t-30.5 9v45v6q21 7 32.5 23t14.5 29t5 13q14 1 15 -12.5t-5 -26.5l-6 -13h2q1 0 4.5 0.5t7 0.5t7.5 -0.5t7 -2t5 -4t3 -6.5q-1 -4 -2.5 -7t-7.5 -10q7 -1 7 -13.5t-11 -16.5zM511 735q-61 0 -119 -16t-107 -45t-90 -70t-70 -90t-45 -107
t-16 -119q0 -91 35.5 -174t95.5 -143t142.5 -95t173.5 -35t174 35t143 95t95 143t35 174t-35 173.5t-95 142.5t-143 95.5t-174 35.5zM365 542q6 -15 17.5 -26t29.5 -13q-11 10 -17.5 25t-8.5 32q5 13 18 22.5t24.5 13.5t28 6t21.5 2h11q24 0 42 -1.5t38 -6.5t34 -15.5
t25.5 -26t17 -40t4.5 -56.5q1 -4 1.5 -8t1 -8.5t0.5 -8.5q0 -11 -2 -21.5t-4 -20.5q-2 -3 -4.5 -8t-8.5 -16.5t-11 -17.5l-19 -26q-21 -18 -46 -28t-53 -10q-32 0 -61 13t-49.5 37t-30.5 54q-10 8 -19 31t-9 52q0 41 29 70zM535 225h-50l-12 40h74zM544 142l-17 -36h-31
l-18 35l20 74l26 1zM356 225q1 1 2 4t5.5 10t9 12t11 9.5t12.5 4.5h28q16 0 26.5 -40t12.5 -80l3 -40h-161zM396 -28q-39 -2 -43 24l24 3q3 -11 17 -11q13 0 13 9q1 5 -16 8q-1 1 -3 1.5t-5 1.5q-6 1 -9 2q-18 5 -19 20q1 25 35 25q32 1 39 -22l-25 -2q-1 4 -4 6t-9 2
q-9 -2 -10 -8q-1 -5 10 -7q3 -1 10 -3q5 -1 8 -2q24 -5 22 -23q0 -24 -35 -24zM504 -26q-3 6 -3 11q-11 -13 -34 -13q-12 1 -18.5 6.5t-7.5 15.5q-1 22 29 26q22 4 29 8q1 5 -3 7.5t-12 2.5q-7 0 -11.5 -2.5t-6.5 -7.5l-23 3q7 24 40 24q42 1 40 -35v-30q0 -11 4 -16h-23z
M562 -26h-25v118h25v-118zM620 -28q-43 1 -45 39q2 42 42 44q44 0 45 -43v-6h-62q1 -16 20 -18q13 0 17 10l26 -3q-10 -23 -43 -23zM717 172q0 -32 -22.5 -55t-54.5 -23h-15q-32 0 -55 23t-23 55v15q0 32 23 55t55 23h15q21 0 39 -10.5t28 -28.5t10 -39v-15zM619 39
q-9 -1 -14 -5.5t-6 -12.5h39q0 4 -1.5 7t-4 5.5t-6 3.5t-7.5 2zM464 -4q0 -8 13 -8q22 2 24 22v4q-7 -4 -21 -7q-16 -3 -16 -11z" />
    <glyph glyph-name="uniE646" unicode="&#xe646;" 
d="M513 352h29v13h-29v16h33v13h-48v-68h15v26zM316 186q-6 0 -11 -3t-8.5 -8.5t-3.5 -11.5t3.5 -11.5t8.5 -8.5t11 -3t11.5 3t8.5 8.5t3 11.5q0 10 -6.5 16.5t-16.5 6.5zM570 352h9l16 -26h20l-20 27q17 4 17 21q-1 20 -26 20h-32v-68h16v26zM570 382h13q12 1 12 -9
q0 -9 -12 -9h-13v18zM511 736q-73 0 -141 -23t-123 -64t-96 -96t-63.5 -123t-22.5 -141q0 -52 11.5 -102t33.5 -94t52.5 -83t69.5 -69.5t83 -52.5t94 -33.5t102 -11.5q91 0 173.5 35t142.5 95t95.5 142.5t35.5 173.5q0 61 -16.5 119t-45 106.5t-70 90t-90 70t-106.5 45
t-119 16.5zM308 440q0 2 0.5 3.5t1.5 3t2.5 3t3 2.5t3 1.5t3.5 0.5q6 0 10.5 -4t4.5 -10v-14h-29v14zM250 165h-29q-8 0 -14 3t-8 8t-3 10t-1 8v3h64q-9 -15 -9 -32zM316 117q-9 0 -17.5 4t-14.5 10t-9.5 14.5t-3.5 17.5q0 19 13 32.5t32 13.5q9 0 17.5 -3.5t15 -10
t10 -14.5t3.5 -18q0 -19 -13.5 -32.5t-32.5 -13.5zM464 165h-81q0 9 -2.5 17t-6.5 15h99q-1 -1 -1.5 -3t-1.5 -3.5t-1.5 -3.5t-1 -3.5t-1.5 -3.5v-4q-1 -2 -1.5 -3.5t-0.5 -3.5v-4zM531 117q-13 0 -23.5 6.5t-16.5 17t-6 22.5q0 19 13.5 32.5t32.5 13.5q7 0 14 -2.5
t12.5 -6.5t10 -9.5t6.5 -12.5t2 -15q0 -19 -13 -32.5t-32 -13.5zM615 165h-18q0 9 -2.5 17t-6.5 15h36q-2 -3 -4 -7l-2 -8q-2 -4 -2.5 -8.5t-0.5 -8.5zM682 117q-8 0 -15 2.5t-12.5 7t-9.5 10t-6.5 12.5t-2.5 14q0 10 3.5 18t9.5 14.5t14.5 10t18.5 3.5q12 0 22.5 -6
t16.5 -16.5t6 -23.5q0 -19 -13.5 -32.5t-31.5 -13.5zM763 165h-15q0 8 -2.5 16.5t-6.5 15.5h59v-1v-3q0 -2 -0.5 -4t-1.5 -5t-2.5 -5.5t-4 -5t-6 -4.5t-9 -3t-11.5 -1zM798 212h-71q-19 18 -45.5 18t-45.5 -18h-60q-19 18 -45 18q-13 0 -24.5 -4.5t-21.5 -13.5h-123
q-20 18 -46 18t-45 -18h-60v65q3 7 7.5 18t14.5 36.5t16 40.5q8 19 22 30.5t40 11.5h76q11 0 17.5 -5.5t6.5 -16.5v-127h387v-53zM799 280h-381v163h381v-163zM531 186q-5 0 -9 -1.5t-7 -5t-5 -7.5t-2 -9q0 -9 6.5 -16t16 -7t16.5 7t7 16.5t-7 16t-16 6.5zM531 165zM274 361
q-8 -22 -33 -84h36l24 23q3 3 5 4l5 2q3 2 7.5 3t11.5 1h53v77h-72q-15 0 -23 -6.5t-14 -19.5zM682 186q-10 0 -16.5 -6.5t-6.5 -16.5q0 -6 3 -11.5t8 -8.5t12 -3q9 0 15.5 7t6.5 16q0 3 -0.5 6t-2 5.5t-3.5 5t-4.5 3.5t-5.5 2t-6 1zM681 165h1h-1zM674 338h-38v16h34v13
h-34v14h37v13h-53v-68h54v12zM736 338h-39v16h35v13h-35v14h38v13h-53v-68h54v12z" />
    <glyph glyph-name="uniE647" unicode="&#xe647;" 
d="M513 735q-91 0 -174 -35.5t-143 -95.5t-95.5 -142.5t-35.5 -174t35.5 -174t95.5 -142.5t143 -95.5t174 -35.5t174 35.5t142.5 95.5t95 142.5t35.5 174t-35.5 174t-95 142.5t-142.5 95.5t-174 35.5zM704 57q-20 0 -34 14t-14 34h-223q0 -5 -1 -10.5t-3.5 -10.5t-6 -9
t-7.5 -7.5t-8.5 -6t-10 -3.5t-11.5 -1q-20 0 -34 14t-14 34q0 14 6.5 25t17.5 17.5t24 6.5h43l-92 267h-54q-10 0 -17 7t-7 17t7 17.5t17 7.5h71q8 0 14 -4.5t9 -12.5l14 -40h147q0 -25 9 -49h-139l44 -128l205 14l15 34q33 2 61 20l-38 -87q-3 -6 -8.5 -10t-11.5 -4
l-207 -14l12 -35h225q20 0 34 -14t14 -34.5t-14 -34.5t-34 -14zM664 308q-43 0 -73.5 30.5t-30.5 74.5q0 29 14 53t38 38t52 14q43 0 73.5 -30.5t30.5 -74.5q0 -21 -8.5 -40.5t-22.5 -34t-33 -22.5t-40 -8zM712 462q-10 0 -17 -8l-47 -47l-15 15q-3 3 -7.5 5t-9.5 2t-9 -2
t-7.5 -5t-5.5 -7.5t-2 -9.5t2 -9.5t5 -7.5l32 -33q4 -3 8 -5t9 -2q10 0 17 7l64 65q7 7 7 17t-7 17.5t-17 7.5z" />
    <glyph glyph-name="uniE648" unicode="&#xe648;" 
d="M512 735q-73 0 -141.5 -22.5t-123 -63.5t-96 -96t-64 -123.5t-22.5 -141t22.5 -141t64 -123t96 -96t123 -64t141.5 -22.5q60 0 118 16t107 44.5t90.5 70t70 90.5t45 107t16.5 119q0 91 -35.5 173.5t-95.5 142.5t-142.5 95t-173.5 35zM472 547q6 0 13.5 2.5t14 5.5
t12.5 6.5t10 5.5l3 3q1 -1 3.5 -2.5t9 -5.5t12 -7t13 -5.5t13 -2.5t13 2.5t14.5 6t13 7t10 5.5l3 2l-54 -109h-100l-55 108q33 -22 52 -22zM576 451v-32h-102v32h102zM732 155q-1 -24 -11 -44t-25 -33.5t-32.5 -23.5t-35.5 -15.5t-32.5 -9.5t-23.5 -5l-9 -1q-13 -2 -32.5 -2
t-32.5 1l-12 1q-2 0 -6 0.5t-15 2.5t-21.5 4.5t-25.5 7.5t-27.5 11.5t-25.5 17t-22.5 23t-16 29.5t-7.5 37q-1 24 7 51.5t21.5 51.5t30.5 47t33.5 41.5t31 32.5t23.5 22l8 7h101q7 -6 18 -15.5t38.5 -38.5t48 -58t37 -68.5t15.5 -73.5zM564 204q-1 2 -3 4l-4 2q-2 2 -4 3
t-4 2.5t-4.5 2.5t-4.5 2q-6 3 -12.5 5.5t-11.5 5.5q-3 2 -5 4t-3 4q-3 3 -3 9v4q0 1 1 3l4 5q1 2 3 2.5t4 1.5q4 1 9 1q7 0 13 -1.5t10.5 -3.5t7.5 -4t4.5 -2t2.5 1t1.5 2.5t0.5 4.5v6v5v3l-1 1q0 2 -0.5 2.5t-1.5 2t-5 3.5q-2 1 -4.5 1.5t-5 1.5t-5 1.5t-5.5 1.5h-2h-1v21
h-20v-21q-5 -1 -11 -3q-3 0 -6 -2l-6 -2q-3 -2 -5 -4q-8 -6 -12 -15t-4 -21q0 -10 3 -17q1 -4 3 -7t5 -6q5 -5 11 -9q7 -4 13 -7t13 -6q3 -1 5.5 -2.5t5.5 -3.5q5 -3 8 -7q1 -2 2 -4.5t1 -4.5q0 -5 -2 -9l-5 -7l-8 -4q-3 0 -5.5 -0.5t-6.5 -0.5h-6q-2 0 -4.5 0.5t-5.5 1.5
q-7 2 -12 4q-3 2 -5 3t-3.5 2t-3.5 2h-1q-2 0 -3 -0.5t-1.5 -2.5t-0.5 -5v-6v-4v-2v-3q1 -1 1.5 -2.5t1.5 -1.5l5 -4q2 -1 4.5 -2t5.5 -2q5 -2 12.5 -3.5t15.5 -1.5h1v-19h20v22h3q11 4 20 10l4 3l3 4q2 2 3.5 4.5t2.5 4.5q1 4 2.5 7.5t2 7.5t0.5 8q0 10 -3 17q-1 3 -3 5
l-2 4z" />
    <glyph glyph-name="uniE649" unicode="&#xe649;" 
d="M512 733q-61 0 -119 -16t-107 -44.5t-90.5 -70t-70 -90.5t-45 -107t-16.5 -119q0 -91 35.5 -173.5t95.5 -142.5t143 -95.5t174 -35.5t173.5 35.5t142.5 95.5t95.5 142.5t35.5 173.5t-35.5 174t-95.5 143t-142.5 95t-173.5 35zM563 472q0 9 6.5 15.5t15.5 6.5l89 33
q9 0 15.5 -6.5t6.5 -15.5v-65q0 -6 -3 -11t-8 -8t-11 -3h-89q-9 0 -15.5 6.5t-6.5 15.5v32zM334 505q0 9 6.5 15.5t15.5 6.5l89 -33q9 0 15.5 -6.5t6.5 -15.5v-32q0 -4 -1.5 -8t-4.5 -7t-7.5 -5t-8.5 -2h-89q-9 0 -15.5 6.5t-6.5 15.5v65zM500 25h-129q-18 0 -31.5 13
t-13.5 32v128h174v-173zM500 228h-174v128q0 19 13.5 32.5t31.5 13.5h129v-174zM500 423q-3 0 -5.5 1.5t-4 4t-1.5 5.5v32q0 3 1.5 5.5t4 4t5.5 1.5h30q4 0 7.5 -3t3.5 -8v-32q0 -4 -3.5 -7.5t-7.5 -3.5h-30zM704 70q0 -12 -6 -22.5t-16.5 -16.5t-22.5 -6h-129v173h174v-128
zM704 228h-174v174h129q12 0 22.5 -6t16.5 -16.5t6 -23.5v-128z" />
    <glyph glyph-name="uniE64A" unicode="&#xe64a;" 
d="M512 734q-73 0 -141 -22.5t-123 -63.5t-96.5 -96t-64 -123t-22.5 -141q0 -61 16 -118.5t45 -106.5t70 -90.5t90 -70t107 -44.5t119 -16q91 0 173.5 35t142 95t95 142.5t35.5 173.5q0 185 -130.5 315.5t-315.5 130.5zM715 521q5 0 10 -2.5t10 -7t8.5 -7.5t9 -9.5t6.5 -7.5
h-81l-10 34h47zM631 556l44 -104h-278zM297 521h192l-47 -34l-197 -1q30 35 52 35zM780 77q0 -12 -5.5 -23.5t-14.5 -20.5t-21 -14.5t-24 -5.5h-418q-6 0 -12 1.5t-11.5 4t-10 6.5t-8.5 8t-7.5 9.5t-5.5 11t-3.5 11.5t-1.5 12v364l543 -1v-363zM752 184h-110v-41h110v41z
M370 184h-97v-41h97v41zM753 116h-480v-40h480v40zM493 184h-97v-41h97v41zM616 184h-83v-41h83v41z" />
    <glyph glyph-name="uniE64B" unicode="&#xe64b;" 
d="M513 736q-91 0 -174 -35.5t-143 -95.5t-95.5 -142.5t-35.5 -173.5q0 -73 22.5 -141.5t64 -123t96.5 -96t123.5 -64t141.5 -22.5q90 0 173 35t143 95t95.5 143t35.5 174q0 73 -22.5 141t-64 123t-96.5 96.5t-123.5 64t-140.5 22.5zM653 423v5q21 -14 24 -27.5t-4.5 -20.5
t-19.5 -13v3v53zM640 336q5 -8 4 -16.5t-4.5 -15t-10.5 -11t-16 -4.5h-3q-2 0 -3 1q0 4 -1.5 8.5t-3.5 7.5l-10 13l45 23zM370 333q1 1 1 3q7 15 7 23v121q0 75 66 105q60 28 120 2q67 -34 69 -107v-121v-4l-49 -23l1 2q5 11 6 14.5t1 9.5v122q0 37 -27 58t-59.5 21
t-59.5 -21t-27 -58v-120q0 -7 9 -28q2 -6 2 -12.5t-3 -11.5l-24 -19h-4q-12 0 -20.5 7t-10.5 17t2 20zM551 373q-5 4 -11 6.5t-12.5 1.5t-11.5 -5l-64 -49q-1 3 -1.5 6t-2 6.5t-2.5 6.5q-7 13 -7 26v53q0 9 2.5 11.5t13.5 2.5h104q7 0 9.5 -1t3.5 -3.5t1 -8.5v-36zM573 374
v-4q0 -6 -1 -10t-4 -10l-11 14zM537 245l-17 -12l-56 75l32 23q28 20 46 -2q19 -26 -12 -48l-12 -9zM437 197q-1 3 -3 8l-22 65l19 14l27 -97l-20 -14l-84 54l19 14l56 -40l8 -6v2zM436 287l17 13l56 -75l-18 -13zM753 22q0 -6 -4 -10.5t-11 -4.5h-465q-6 0 -10.5 4.5
t-4.5 10.5v402q0 3 1 5.5t3 4.5t5 3.5t6 1.5h71q5 0 7 -1h4q2 -1 2.5 -3t0.5 -5v-6v-52q0 -13 -7 -27q-11 -22 -2.5 -44t29.5 -30l-48 -38q-9 -6 -10.5 -16.5t5.5 -19.5l49 -65q6 -8 17 -9.5t19 5.5l186 141q4 -1 8 -1.5t9 -0.5q30 0 45.5 26t1.5 52q-1 2 -1.5 3.5t-1.5 2.5
q10 6 19.5 15.5t14.5 23.5q8 21 -28 49h4h71q3 0 6 -1.5t5 -3.5t3 -4.5t1 -5.5v-402zM503 316l-12 -8l17 -23l11 8q14 10 6 22q-9 11 -22 1z" />
  </font>
</defs>
</svg>
