<?xml version="1.0" standalone="no"?><svg xmlns="http://www.w3.org/2000/svg"><metadata>Created by youziku.com at Thu, 20 Aug 2015 16:14:17 GMT</metadata><defs><font id="SiYuan-ExtraLight" horiz-adv-x="1000" ><font-face font-family="SiYuan-ExtraLight" font-weight="400" font-stretch="normal" font-style="normal" units-per-em="1000" panose-1="2 1 6 0 3 1 1 1 1 1" ascent="860" descent="-140" bbox="-33 -275 1000 924" underline-thickness="40" underline-position="-60" unicode-range="U+0021-FFE5"  /><missing-glyph /><glyph glyph-name="" unicode="" /><glyph glyph-name="plus" unicode="+" d="M242 347h-205v32h205v225h37v-225h205v-32h-205v-224h-37v224z" horiz-adv-x="521" /><glyph glyph-name="comma" unicode="," d="M53 -139c53 29 79 74 80 133c-32 -5 -55 8 -54 40c1 27 14 41 41 41c33 0 49 -23 49 -70c0 -73 -34 -130 -103 -171z" horiz-adv-x="231" /><glyph glyph-name="period" unicode="." d="M75 30c0 30 13 45 40 45s41 -15 41 -45c0 -29 -14 -43 -41 -43s-40 14 -40 43z" horiz-adv-x="231" /><glyph glyph-name="slash" unicode="/" d="M359 782h34l-349 -958h-35z" horiz-adv-x="396" /><glyph glyph-name="one" unicode="1" d="M95 33h167v625h-127v26c54 9 98 23 131 42h31v-693h156v-33h-358v33z" horiz-adv-x="521" /><glyph glyph-name="Q" unicode="Q" d="M357 704c-169 0 -256 -156 -256 -339c0 -184 88 -345 256 -345s256 161 256 345c0 183 -87 339 -256 339zM357 739c189 0 295 -171 295 -374c0 -197 -101 -366 -275 -377c37 -99 144 -138 265 -110l9 -34c-145 -43 -282 33 -317 144c-172 13 -272 180 -272 377
c0 203 105 374 295 374z" horiz-adv-x="714" /><glyph glyph-name="a" unicode="a" d="M218 -13c-91 -2 -152 53 -152 143c0 107 115 173 344 199c5 104 -33 178 -128 178c-66 0 -132 -31 -172 -64l-18 29c73 62 256 110 320 9c23 -34 34 -81 34 -140v-341h-30l-5 70h-3c-53 -43 -111 -81 -190 -83zM103 131c-1 -72 45 -112 118 -111c57 0 120 30 189 89v189
c-111 -12 -191 -32 -239 -59c-45 -26 -68 -62 -68 -108z" horiz-adv-x="536" /><glyph glyph-name="b" unicode="b" d="M536 271c0 -153 -91 -283 -234 -284c-52 0 -105 22 -159 66h-3l-5 -53h-30v794h36c0 -114 2 -230 -3 -340c53 43 109 86 186 86c147 0 212 -112 212 -269zM305 20c121 -2 193 120 193 251c0 137 -50 235 -177 236c-52 0 -112 -30 -180 -91v-325c44 -37 96 -70 164 -71z
" horiz-adv-x="593" /><glyph glyph-name="c" unicode="c" d="M295 -13c-147 -1 -236 121 -236 275c0 184 150 335 328 257c21 -9 42 -25 63 -45l-23 -26c-34 33 -73 58 -131 59c-120 2 -199 -117 -199 -245c0 -132 73 -243 199 -242c61 0 111 30 146 63l21 -26c-43 -38 -96 -69 -168 -70z" horiz-adv-x="492" /><glyph glyph-name="i" unicode="i" d="M105 527h36v-527h-36v527zM86 698c0 26 13 39 38 39c26 0 39 -13 39 -39c0 -25 -13 -38 -39 -38c-25 0 -38 13 -38 38z" horiz-adv-x="245" /><glyph glyph-name="m" unicode="m" d="M143 443c41 47 95 97 167 97c78 0 126 -37 145 -110c67 73 127 110 181 110c104 0 156 -67 156 -201v-339h-35v334c0 115 -42 173 -125 173c-49 0 -104 -35 -166 -104v-403h-35v334c0 115 -41 173 -124 173c-51 0 -106 -35 -166 -104v-403h-36v527h30c3 -27 2 -60 8 -84z
" horiz-adv-x="889" /><glyph glyph-name="o" unicode="o" d="M293 -13c-143 0 -234 125 -234 275c0 152 90 277 234 278c143 0 234 -126 234 -278c0 -150 -91 -275 -234 -275zM293 20c121 -1 197 113 197 242c0 130 -76 245 -197 245s-196 -116 -196 -245s75 -242 196 -242z" horiz-adv-x="586" /><glyph glyph-name="p" unicode="p" d="M305 20c121 -3 193 120 193 251c0 137 -50 235 -177 236c-50 0 -110 -30 -180 -91v-325c46 -38 95 -69 164 -71zM536 271c0 -153 -91 -283 -234 -284c-49 0 -102 22 -161 66v-296h-36v770h30c3 -22 2 -49 8 -68c52 42 107 81 181 81c147 0 212 -112 212 -269z" horiz-adv-x="595" /><glyph glyph-name="u" unicode="u" d="M436 90c-51 -56 -95 -103 -181 -103c-106 0 -159 67 -159 201v339h36v-335c0 -115 42 -172 126 -172c57 0 116 38 179 113v394h36v-527h-31c-3 29 0 64 -6 90z" horiz-adv-x="577" /><glyph glyph-name="y" unicode="y" d="M23 -233l9 33c121 -39 171 86 199 188l-218 539h40c64 -164 125 -331 192 -492h5c55 162 112 330 168 492h37l-210 -601c-29 -97 -103 -202 -222 -159z" horiz-adv-x="468" /><glyph glyph-name="quotedblleft" unicode="&#x201C;" d="M771 636c0 -31 -26 -56 -57 -56c-94 0 -79 135 -35 189c23 29 47 52 77 65l13 -23c-57 -31 -86 -74 -87 -131c34 27 89 8 89 -44zM951 636c0 -31 -26 -56 -57 -56c-94 0 -79 135 -35 189c23 29 47 52 77 65l13 -23c-57 -31 -86 -74 -87 -131c34 27 89 8 89 -44z" /><glyph glyph-name="quotedblright" unicode="&#x201D;" d="M229 778c0 30 25 56 57 56c94 0 79 -135 35 -189c-23 -29 -47 -52 -77 -65l-13 23c57 31 86 74 87 131c-34 -27 -89 -8 -89 44zM49 778c0 30 25 56 57 56c94 0 79 -135 35 -189c-23 -29 -47 -52 -77 -65l-13 23c57 31 86 74 87 131c-34 -27 -89 -8 -89 44z" /><glyph glyph-name="ellipsis" unicode="&#x2026;" d="M167 430c33 0 50 -17 50 -50s-17 -50 -50 -50s-50 17 -50 50s17 50 50 50zM500 430c33 0 50 -17 50 -50s-17 -50 -50 -50s-50 17 -50 50s17 50 50 50zM833 430c33 0 50 -17 50 -50s-17 -50 -50 -50s-50 17 -50 50s17 50 50 50z" /><glyph glyph-name="uni3001" unicode="&#x3001;" d="M291 -43c-71 87 -146 162 -227 225l25 24c73 -58 150 -133 231 -225z" /><glyph glyph-name="uni3002" unicode="&#x3002;" d="M195 240c76 0 143 -67 143 -143s-67 -143 -143 -143s-143 67 -143 143s67 143 143 143zM195 -16c61 0 113 52 113 113s-52 113 -113 113c-60 0 -113 -52 -113 -113s52 -113 113 -113z" /><glyph glyph-name="uni4E00" unicode="&#x4E00;" d="M955 407v-33h-905v33h905z" /><glyph glyph-name="uni4E09" unicode="&#x4E09;" d="M877 732v-29h-750v29h750zM800 400v-29h-614v29h614zM933 44v-29h-865v29h865z" /><glyph glyph-name="uni4E0A" unicode="&#x4E0A;" d="M942 5v-29h-883v29h392v808h29v-330h395v-29h-395v-449h462z" /><glyph glyph-name="uni4E0B" unicode="&#x4E0B;" d="M496 726v-200l7 8c108 -51 281 -150 373 -215l-17 -26c-101 73 -222 145 -363 216v-579h-29v796h-408v30h883v-30h-446z" /><glyph glyph-name="uni4E0D" unicode="&#x4E0D;" d="M597 727c-21 -39 -49 -81 -84 -128v-669h-29v631c-117 -142 -253 -255 -409 -339l-19 23c224 119 393 279 507 482h-489v29h852v-29h-329zM590 527c111 -63 273 -177 355 -259l-19 -22c-91 89 -210 176 -355 262z" /><glyph glyph-name="uni4E0E" unicode="&#x4E0E;" d="M689 185h-623v29h623v-29zM173 392c30 101 76 291 100 410l28 -4l-26 -123h589v-29h-596c-17 -71 -38 -160 -56 -225h656c-15 -141 -30 -269 -49 -333c-29 -98 -30 -148 -127 -148c-51 0 -122 4 -171 8c-1 12 -5 21 -10 28c54 -6 116 -8 177 -8c25 0 42 4 50 11
c20 17 37 57 52 118c15 63 31 161 46 295h-663z" /><glyph glyph-name="uni4E13" unicode="&#x4E13;" d="M364 487c-17 -44 -37 -101 -53 -141h478c9 7 18 -9 27 -12c-97 -94 -193 -188 -290 -282c80 -35 141 -67 184 -95l-21 -24c-107 69 -247 133 -420 191l20 21c69 -23 145 -51 207 -79c89 82 176 165 261 251h-490c20 46 48 118 68 170h-272v29h282c18 49 39 104 55 153
h-259v29h270l43 129h31l-45 -129h403v-29h-413l-55 -153h540v-29h-551z" /><glyph glyph-name="uni4E1A" unicode="&#x4E1A;" d="M902 565c-50 -105 -127 -242 -185 -329l-24 14c69 104 130 213 181 328zM253 246c-31 94 -81 203 -152 327l28 8c49 -82 120 -229 155 -322zM934 15v-29h-865v29h301v804h29v-804h205v801h29v-801h301z" /><glyph glyph-name="uni4E2A" unicode="&#x4E2A;" d="M485 564h29v-635h-29v635zM933 384c-184 103 -324 213 -433 375c-115 -162 -259 -286 -431 -373c-6 7 -15 16 -22 20c201 100 356 242 466 425l25 -12c-7 -13 -15 -25 -23 -37c107 -164 253 -275 440 -376c-8 -4 -15 -11 -22 -22z" /><glyph glyph-name="uni4E30" unicode="&#x4E30;" d="M941 184h-427v-253h-29v253h-426v29h426v212h-340v29h340v197h-388v29h388v151h29v-151h386v-29h-386v-197h341v-29h-341v-212h427v-29z" /><glyph glyph-name="uni4E3A" unicode="&#x4E3A;" d="M305 637c-27 47 -66 97 -117 149l24 14c53 -55 92 -103 117 -146zM466 829c0 -83 2 -170 -5 -246h426c-6 -207 -17 -378 -28 -460c-20 -152 -24 -193 -178 -182c-32 2 -62 3 -91 5c-1 11 -5 21 -10 29c50 -5 108 -7 164 -7c21 -1 35 4 44 13c17 17 31 67 41 150
c10 85 19 226 28 423h-399c-31 -300 -177 -480 -376 -615c-5 7 -13 14 -22 20c195 134 335 304 369 595h-339v29h342c7 76 5 163 5 246h29zM672 182c-33 61 -86 130 -158 205l24 14c70 -71 123 -138 159 -201z" /><glyph glyph-name="uni4E3B" unicode="&#x4E3B;" d="M579 634c-41 55 -100 112 -176 172l22 15c75 -57 134 -114 177 -171zM944 -5v-29h-882v29h423v299h-334v29h334v267h-373v29h780v-29h-378v-267h343v-29h-343v-299h430z" /><glyph glyph-name="uni4E5F" unicode="&#x4E5F;" d="M262 70c3 -82 36 -91 125 -91h402c120 10 107 59 125 197c10 -6 20 -11 30 -14c-10 -133 -19 -212 -162 -212h-389c-118 3 -160 14 -160 123v362l-186 -56l-9 25l195 59v300h29v-291l261 79v278h29v-269l279 85l12 10c7 -6 27 -6 18 -18c-3 -154 -7 -276 -36 -374
c-23 -77 -100 -63 -189 -60c-1 9 -5 19 -10 29c29 -2 78 -3 115 -3c28 0 49 16 60 50c27 87 27 200 30 337l-279 -84v-400h-29v391l-261 -78v-375z" /><glyph glyph-name="uni4E86" unicode="&#x4E86;" d="M516 -14c0 -73 -87 -50 -163 -56h-72c-1 10 -9 22 -13 30c95 -3 159 -2 192 0c18 1 27 9 27 25v500c128 60 238 136 329 229h-716v29c249 1 504 -3 750 2l23 -15c-84 -93 -235 -200 -357 -260v-484z" /><glyph glyph-name="uni4E8E" unicode="&#x4E8E;" d="M397 -36c53 0 96 -13 96 29v397h-434v29h434v303h-364v29h742v-29h-349v-303h419v-29h-419v-396c0 -30 -13 -48 -40 -54c-19 -5 -83 -6 -190 -5c-5 10 -8 20 -14 30c41 -1 80 -1 119 -1z" /><glyph glyph-name="uni4E91" unicode="&#x4E91;" d="M834 707h-666v29h666v-29zM449 422c-81 -162 -166 -300 -256 -413l606 56c-51 77 -103 152 -158 224l26 12c76 -100 188 -255 241 -357l-26 -15c-16 29 -38 66 -66 110c-220 -25 -461 -36 -668 -73c-3 14 -7 25 -11 34c46 25 123 153 159 211c41 65 84 142 116 211h-348
v29h874v-29h-489z" /><glyph glyph-name="uni4EA7" unicode="&#x4EA7;" d="M890 663h-772v29h410c-18 41 -45 83 -80 124l25 12c36 -41 64 -83 83 -124l-23 -12h357v-29zM372 479c-22 49 -52 99 -91 150l24 8c43 -56 74 -105 92 -147zM47 -55c85 114 99 302 92 509h476c36 57 66 118 91 182l28 -12c-25 -56 -60 -123 -90 -170h277v-29h-753
c6 -203 -14 -384 -98 -499c-4 6 -16 16 -23 19z" /><glyph glyph-name="uni4EBA" unicode="&#x4EBA;" d="M523 825c-19 -191 28 -338 82 -474c70 -176 180 -315 348 -391c-9 -5 -16 -13 -21 -23c-240 113 -369 358 -427 657c-48 -313 -185 -541 -427 -659c-4 7 -11 14 -21 21c291 142 430 441 436 869h30z" /><glyph glyph-name="uni4ED3" unicode="&#x4ED3;" d="M278 46c5 -57 34 -56 104 -56h337c101 9 83 49 98 168c10 -7 20 -11 30 -13c-16 -136 -6 -184 -131 -184h-329c-97 4 -138 2 -138 86v425h504c-4 -86 -10 -174 -15 -207c-10 -65 -13 -85 -74 -89c-33 -2 -77 0 -132 4c-1 10 -4 20 -8 29c48 -2 128 -15 169 2
c25 60 22 121 30 232h-445v-397zM938 413c-173 91 -320 203 -435 348c-119 -157 -265 -277 -438 -361c-7 7 -16 17 -23 21c203 97 361 233 475 408l25 -13c-8 -11 -15 -23 -23 -34c111 -147 265 -258 441 -347c-7 -5 -15 -12 -22 -22z" /><glyph glyph-name="uni4ED8" unicode="&#x4ED8;" d="M72 369c-5 6 -17 19 -23 24c115 109 206 252 273 429l29 -7c-34 -86 -73 -164 -117 -234v-650h-29v604c-44 -65 -88 -121 -133 -166zM940 572h-142v-583c0 -32 -14 -51 -42 -57c-21 -5 -87 -6 -196 -5c-3 8 -7 18 -14 31c58 -2 139 -4 193 -1c20 1 30 12 30 31v584h-430
v29h430v217h29v-217h142v-29zM582 160c-41 76 -95 163 -162 260l24 13c71 -101 125 -186 164 -255z" /><glyph glyph-name="uni4EE5" unicode="&#x4EE5;" d="M548 493c-35 76 -87 156 -158 241l25 12c53 -64 125 -166 159 -239zM480 230c2 -5 7 -19 9 -26c-195 -86 -234 -98 -332 -151l-8 -7c-5 9 -11 19 -19 28c25 11 47 37 47 68v601h29v-632zM812 793c-14 -216 -41 -426 -114 -572c111 -95 195 -186 254 -273l-26 -18
c-55 83 -135 171 -241 266c-65 -119 -174 -211 -325 -275c-7 11 -14 20 -21 25c289 108 397 327 429 684c5 49 9 104 13 165z" /><glyph glyph-name="uni4EF6" unicode="&#x4EF6;" d="M322 819c-27 -77 -61 -150 -102 -221v-667h-29v617c-37 -61 -78 -116 -123 -167c-7 8 -14 16 -22 23c104 109 187 250 248 423zM319 428c63 88 105 218 127 357l29 -5c-12 -63 -25 -118 -40 -166h186v205h29v-205h249v-29h-249v-269h289v-29h-289v-359h-29v359h-304v29
h304v269h-195c-25 -71 -52 -130 -82 -175c-8 7 -16 13 -25 18z" /><glyph glyph-name="uni4EF7" unicode="&#x4EF7;" d="M320 823c-29 -81 -63 -156 -100 -224v-670h-29v618c-37 -63 -76 -117 -117 -163c-6 7 -15 19 -22 24c101 109 181 249 239 422zM280 -56c111 76 176 189 173 375v137h29c5 -177 -3 -338 -82 -437c-28 -35 -60 -68 -99 -97c-7 9 -14 17 -21 22zM746 456h29v-525h-29v525z
M262 439c147 89 282 237 353 393l33 -6c-4 -9 -12 -24 -24 -45c87 -142 198 -250 335 -323c-5 -5 -12 -13 -21 -24c-131 77 -241 184 -329 321c-79 -133 -196 -254 -325 -335c-6 7 -13 14 -22 19z" /><glyph glyph-name="uni4F01" unicode="&#x4F01;" d="M525 -10h410v-29h-851v29h145v394h29v-394h238v582h29v-254h313v-29h-313v-299zM939 424c-174 90 -325 201 -438 347c-112 -152 -256 -267 -431 -345c-7 9 -14 16 -21 22c204 89 359 219 464 391l26 -11c-7 -12 -15 -24 -23 -36c112 -147 268 -258 444 -346
c-10 -6 -17 -13 -21 -22z" /><glyph glyph-name="uni4F17" unicode="&#x4F17;" d="M58 -45c149 112 219 282 249 524l30 -4c-9 -63 -19 -119 -31 -168c91 -70 161 -133 210 -190l-24 -22c-48 57 -113 118 -194 183c-43 -149 -114 -263 -214 -342c-5 5 -19 16 -26 19zM438 -52c149 110 207 273 229 523l30 -3c-3 -41 -9 -83 -17 -127
c48 -167 132 -308 268 -385c-8 -5 -15 -12 -20 -23c-125 76 -208 202 -258 353c-37 -160 -105 -280 -206 -359c-7 7 -18 17 -26 21zM511 771c85 -129 274 -263 442 -305c-9 -7 -17 -17 -24 -28c-185 57 -329 160 -433 311c-95 -145 -235 -249 -420 -314c-6 9 -15 21 -22 26
c221 71 373 194 456 371l27 -12c-11 -21 -19 -38 -26 -49z" /><glyph glyph-name="uni4F19" unicode="&#x4F19;" d="M943 627c-37 -87 -90 -202 -132 -272l-24 13c49 83 91 174 126 273zM328 347c41 64 72 185 85 285l26 -5c-12 -103 -44 -225 -85 -293zM323 819c-31 -81 -66 -158 -106 -229v-661h-29v611c-37 -60 -76 -112 -115 -155c-5 8 -13 16 -22 24c103 107 184 247 243 418z
M959 -45c-7 -5 -16 -17 -19 -24c-186 63 -279 195 -322 409c-36 -219 -128 -334 -311 -408c-3 6 -14 14 -19 20c266 86 329 350 323 709v166h29c1 -131 0 -288 -11 -398c36 -252 120 -410 330 -474z" /><glyph glyph-name="uni4F34" unicode="&#x4F34;" d="M677 542c45 60 93 145 126 222l29 -9c-35 -76 -86 -168 -128 -231c-8 5 -19 14 -27 18zM481 524c-29 64 -88 161 -129 223l27 10c43 -64 101 -153 129 -219zM70 368c-4 7 -15 20 -21 24c87 109 156 253 207 430l29 -7c-21 -67 -46 -135 -76 -205v-682h-29v620
c-32 -65 -69 -125 -110 -180zM939 237h-329v-306h-29v306h-313v29h313v188h-271v29h271v348h29v-348h287v-29h-287v-188h329v-29z" /><glyph glyph-name="uni4F4E" unicode="&#x4F4E;" d="M45 381c-4 6 -17 21 -22 24c113 107 202 248 269 422l28 -8c-29 -73 -66 -147 -111 -222v-666h-29v619c-43 -65 -88 -122 -135 -169zM615 130c44 -65 75 -122 93 -172l-26 -10c-16 50 -47 108 -93 174zM655 743c-79 -18 -162 -32 -241 -44v-266h263
c-10 98 -17 202 -22 310zM385 720c147 23 353 63 462 104l31 -23c-53 -18 -118 -35 -195 -52c4 -111 12 -217 23 -316h239v-29h-237c17 -133 39 -236 66 -309c30 -80 65 -121 104 -123c23 -1 39 55 50 167c8 -6 16 -10 25 -12c-7 -69 -16 -118 -28 -147
c-11 -28 -27 -42 -46 -41c-93 0 -149 166 -170 279c-10 54 -21 116 -29 186h-266v-425l178 49c0 -9 1 -17 2 -25c-134 -42 -164 -45 -235 -77c-4 11 -9 21 -16 30c23 8 43 28 42 56v708z" /><glyph glyph-name="uni4F53" unicode="&#x4F53;" d="M308 820c-27 -79 -60 -156 -99 -230v-659h-29v607c-33 -56 -69 -108 -110 -157c-6 9 -13 16 -22 23c97 107 175 248 232 422zM958 131c-7 -6 -17 -17 -24 -24c-127 94 -246 292 -304 468h-6v-413h188v-29h-188v-200h-29v200h-198v29h198v413h-4
c-75 -211 -179 -368 -310 -471c-5 9 -12 16 -22 22c123 89 245 284 303 449h-278v29h311v224h29v-224h322v-29h-286c55 -167 173 -359 298 -444z" /><glyph glyph-name="uni4F55" unicode="&#x4F55;" d="M314 820c-25 -75 -58 -148 -97 -220v-671h-29v618c-37 -62 -76 -116 -116 -162c-5 7 -14 19 -21 23c98 106 176 246 235 419zM404 489v-269h235v269h-235zM404 191v-75h-29v402h293v-327h-264zM868 -6c1 -79 -89 -56 -170 -62h-70c-2 10 -9 24 -13 33c94 -3 159 -3 196 0
c19 1 28 10 28 28v700h-511v29h626v-29h-86v-699z" /><glyph glyph-name="uni4F5C" unicode="&#x4F5C;" d="M347 819c-31 -77 -67 -151 -110 -221v-667h-30v618c-42 -63 -87 -119 -135 -168c-6 9 -13 17 -22 23c114 109 203 250 268 423zM615 629v-185h316v-29h-316v-191h329v-29h-329v-265h-29v699h-101c-45 -88 -96 -163 -153 -226c-8 5 -19 15 -25 19c95 99 171 230 229 393
l28 -7c-17 -50 -39 -100 -64 -150h450v-29h-335z" /><glyph glyph-name="uni4F73" unicode="&#x4F73;" d="M929 438h-604v29h286v183h-235v29h235v152h29v-152h243v-29h-243v-183h289v-29zM322 820c-27 -77 -61 -155 -102 -232v-659h-29v608c-31 -53 -68 -105 -111 -156c-5 8 -13 16 -22 24c99 106 178 247 235 422zM951 2v-29h-662v29h322v216h-256v29h256v142h29v-142h258v-29
h-258v-216h311z" /><glyph glyph-name="uni4F7F" unicode="&#x4F7F;" d="M51 390c-5 6 -17 19 -23 24c115 108 206 247 272 417l28 -7c-29 -75 -66 -148 -111 -220v-681h-29v635c-45 -65 -90 -121 -137 -168zM611 321c4 63 1 135 2 201h-237v-201h235zM642 522c-1 -67 2 -137 -2 -201h246v201h-244zM638 292c-9 -89 -33 -154 -76 -211
c106 -64 238 -107 396 -128c-8 -8 -14 -17 -19 -28c-155 23 -287 68 -396 135c-63 -65 -145 -107 -248 -137l-16 24c100 28 178 68 240 128c-75 51 -131 109 -168 175l26 12c36 -63 89 -118 160 -165c42 51 65 111 72 195h-262v259h266v126h-303v29h303v123h29v-123h312v-29
h-312v-126h273v-259h-277z" /><glyph glyph-name="uni4F9B" unicode="&#x4F9B;" d="M324 818c-30 -75 -67 -149 -111 -222v-665h-29v618c-44 -65 -89 -121 -135 -168c-6 9 -13 17 -22 23c113 109 203 250 268 422zM521 164c-49 -89 -110 -167 -183 -234c-8 6 -19 16 -27 20c75 63 135 137 181 222zM749 168c85 -82 148 -157 187 -224l-26 -17
c-41 72 -102 147 -183 226zM506 274h246v294h-246v-294zM952 274v-29h-649v29h174v294h-148v29h148v219h29v-219h246v219h29v-219h157v-29h-157v-294h171z" /><glyph glyph-name="uni4FBF" unicode="&#x4FBF;" d="M308 820c-27 -81 -60 -158 -99 -230v-659h-29v607c-33 -56 -69 -108 -110 -157c-5 8 -15 20 -22 23c97 107 175 248 232 423zM618 300c3 42 2 91 2 136h-232v-136h230zM388 465h232v134h-232v-134zM649 599v-134h217v134h-217zM866 436h-217c0 -46 1 -93 -2 -136h219v136
zM936 -66c-157 15 -296 51 -404 109c-68 -55 -150 -92 -251 -119c-6 12 -12 21 -17 26c103 26 184 62 241 107c-75 44 -131 99 -167 166l26 11c34 -63 88 -115 162 -157c52 50 79 105 90 194h-257v357h261v109h-301v29h622v-29h-292v-109h246v-357h-250
c-12 -93 -40 -155 -93 -209c105 -54 239 -88 402 -101c-8 -8 -14 -17 -18 -27z" /><glyph glyph-name="uni4FE1" unicode="&#x4FE1;" d="M614 686c-14 40 -46 94 -71 130l28 11c32 -43 57 -85 74 -127zM305 820c-25 -74 -57 -148 -96 -221v-673h-29v620c-38 -64 -77 -119 -117 -165c-5 8 -13 16 -22 24c99 105 177 246 236 422zM399 209v-205h429v205h-429zM370 238h487v-308h-29v45h-429v-48h-29v311z
M382 381h467v-29h-467v29zM849 489h-467v29h467v-29zM933 655v-29h-626v29h626z" /><glyph glyph-name="uni5019" unicode="&#x5019;" d="M943 556h-561v29h394c9 43 19 112 27 162h-355v29h362c7 6 17 0 26 -1c-8 -59 -19 -140 -29 -190h136v-29zM45 392c87 108 164 273 208 430l28 -7c-23 -79 -53 -158 -90 -237v-651h-29v593c-28 -53 -59 -103 -95 -151c-4 5 -17 19 -22 23zM301 598h28v-476h-28v476z
M927 -65c-132 37 -220 116 -265 239c-39 -133 -137 -193 -275 -247c-6 10 -12 18 -19 24c132 48 240 107 271 252h-255v29h259c2 53 0 112 1 167h-145c-27 -52 -55 -95 -84 -128c-8 7 -16 13 -25 18c59 63 104 147 133 251l30 -6c-11 -37 -25 -72 -40 -106h389v-29h-229
c-1 -55 1 -113 -1 -167h269v-29h-259c41 -129 132 -207 267 -242c-9 -8 -17 -17 -22 -26z" /><glyph glyph-name="uni503C" unicode="&#x503C;" d="M65 385c-4 7 -15 20 -21 24c104 108 187 249 248 422l28 -8c-29 -79 -66 -158 -111 -237v-657h-29v608c-37 -59 -76 -110 -115 -152zM417 -2h400v109h-400v-109zM417 539v-114h400v114h-400zM817 396h-400v-115h400v115zM417 136h400v116h-400v-116zM949 -2v-29h-666v29
h105v570h170c9 29 18 68 29 119h-263v29h268c8 41 15 79 20 116l33 -6c-7 -36 -14 -77 -22 -110h288v-29h-294c-11 -51 -21 -90 -29 -119h258v-570h103z" /><glyph glyph-name="uni50A8" unicode="&#x50A8;" d="M326 775c38 -38 86 -93 111 -134l-24 -21c-26 45 -63 91 -111 138zM35 398c88 108 165 274 211 430l29 -6c-22 -75 -51 -147 -83 -217v-673h-29v613c-35 -66 -70 -123 -107 -170zM508 109c2 -7 6 -19 9 -28c-52 -36 -120 -72 -165 -113c-4 9 -10 19 -18 30
c19 11 27 32 27 61v414h-114v29h144v-464zM870 327h-271v-134h271v134zM870 24v140h-271v-140h271zM465 257c-4 6 -17 21 -21 26c93 53 177 119 252 198h-215v29h181v162h-157v29h157v129h29v-129h142v-29h-142v-162h32c76 85 138 175 185 271l28 -9
c-45 -93 -103 -180 -174 -262h187v-29h-214c-41 -45 -85 -87 -131 -125h295v-418h-29v57h-271v-61h-29v396c-32 -25 -70 -50 -105 -73z" /><glyph glyph-name="uni5143" unicode="&#x5143;" d="M857 715h-707v29h707v-29zM691 -52c-65 0 -86 8 -86 68v410h-227c-16 -254 -99 -421 -293 -495c-6 9 -13 16 -20 21c188 68 268 231 283 474h-282v29h869v-29h-301v-410c0 -26 19 -39 56 -39h169c24 0 39 11 46 34c7 22 11 74 13 157c9 -7 19 -13 29 -16
c-3 -85 -9 -139 -18 -163c-25 -69 -153 -41 -238 -41z" /><glyph glyph-name="uni514D" unicode="&#x514D;" d="M521 547c-7 -84 -14 -153 -29 -222h346v222h-317zM462 325c15 67 24 138 29 222h-292v-222h263zM319 714c-40 -51 -80 -97 -127 -138h324c37 37 72 83 104 138h-301zM61 509c119 78 231 198 299 321l34 -6c-17 -26 -36 -58 -53 -81c100 1 206 -3 303 2l19 -13
c-31 -55 -69 -107 -114 -156h318v-280h-279v-283c0 -22 21 -33 64 -33h201c25 0 41 9 48 27c7 17 12 59 14 125c9 -7 19 -11 29 -14c-12 -116 4 -167 -91 -167h-199c-68 3 -95 2 -95 62v283h-75c-60 -203 -185 -297 -400 -355c-4 11 -10 19 -18 26c206 52 329 139 387 329
h-283v260c-24 -21 -53 -44 -86 -67c-5 7 -12 13 -23 20z" /><glyph glyph-name="uni5165" unicode="&#x5165;" d="M482 595c-44 70 -98 127 -163 174l18 24c177 -116 253 -338 352 -536c63 -125 143 -219 261 -286c-9 -10 -14 -20 -16 -30c-199 105 -287 326 -384 535c-14 31 -30 58 -44 82c-74 -298 -200 -493 -429 -627c-7 9 -16 17 -27 24c236 129 363 333 432 640z" /><glyph glyph-name="uni5168" unicode="&#x5168;" d="M514 -10h413v-29h-852v29h410v209h-287v29h287v197h-286v29h609v-29h-294v-197h302v-29h-302v-209zM943 401c-168 108 -321 234 -443 382c-115 -162 -262 -288 -441 -379c-6 8 -14 16 -23 23c203 99 359 237 470 415l26 -12c-6 -8 -11 -16 -16 -24
c118 -149 280 -278 451 -381c-10 -6 -18 -14 -24 -24z" /><glyph glyph-name="uni516C" unicode="&#x516C;" d="M380 786c-71 -167 -167 -304 -290 -409c-6 6 -20 16 -26 20c123 99 219 232 287 397zM172 11c-2 10 -9 25 -12 32c17 3 44 34 86 88c69 89 189 271 247 387l29 -14c-90 -158 -185 -321 -298 -452l563 29c-49 65 -106 140 -159 197l25 13c82 -90 196 -233 253 -331
l-26 -16c-22 36 -46 72 -73 109c-213 -13 -431 -20 -635 -42zM639 802c84 -173 190 -307 317 -402c-9 -7 -18 -16 -25 -25c-127 103 -234 242 -320 415z" /><glyph glyph-name="uni5177" unicode="&#x5177;" d="M250 185h510v124h-510v-124zM250 751v-118h510v118h-510zM250 458v-120h510v120h-510zM760 604h-510v-117h510v117zM943 156h-883v29h161v595h568v-595h154v-29zM52 -48c97 38 227 112 290 174l34 -15c-74 -67 -199 -138 -303 -182zM649 127c114 -53 212 -108 295 -165
l-22 -25c-73 52 -170 108 -291 168z" /><glyph glyph-name="uni5185" unicode="&#x5185;" d="M514 625c-3 -57 -8 -104 -21 -150c130 -111 236 -215 318 -310l-24 -20c-72 89 -173 189 -303 302c-50 -140 -143 -230 -271 -305c-5 7 -14 17 -21 21c165 95 283 217 293 462h-347v-698h-29v727h377v176h29v-176h377v-664c2 -75 -78 -53 -152 -59h-63
c-1 11 -9 24 -13 34c53 -2 124 -3 174 -1c17 1 25 9 25 26v635h-349z" /><glyph glyph-name="uni518C" unicode="&#x518C;" d="M801 427v305h-216v-305h216zM392 427v305h-194v-305h194zM951 398h-121v-419c0 -26 -10 -41 -30 -46c-15 -4 -62 -6 -141 -6c-4 11 -8 21 -13 29c72 -1 116 -1 133 0c15 1 22 8 22 23v419h-217c-6 -189 -39 -350 -115 -468c-5 9 -12 16 -22 21c71 113 103 266 108 447
h-134v-407c0 -25 -10 -40 -29 -45c-14 -4 -59 -6 -134 -6c-2 7 -6 16 -13 29c69 -1 111 -1 126 0c14 1 21 8 21 21v408h-195c-6 -193 -43 -354 -123 -472c-6 8 -14 15 -24 20c78 112 112 267 118 452h-118v29h119v334h252v-334h135v334h274v-334h121v-29z" /><glyph glyph-name="uni51B3" unicode="&#x51B3;" d="M218 589c-32 57 -83 119 -153 186l22 14c67 -61 119 -121 156 -182zM52 -5c56 88 114 198 175 329l22 -19c-45 -100 -120 -243 -172 -330zM608 633c-1 -93 4 -198 -8 -277h207v277h-199zM572 356c11 82 6 185 7 277h-220v29h220v165h29v-165h228v-306h118v-29h-319
c46 -180 153 -317 317 -372c-10 -10 -17 -19 -21 -26c-164 63 -272 196 -324 398h-11c-35 -208 -161 -320 -328 -401c-5 9 -11 17 -18 24c162 75 282 179 317 377h-266v29h271z" /><glyph glyph-name="uni51C6" unicode="&#x51C6;" d="M685 670c-15 42 -38 88 -71 139l24 9c35 -48 59 -94 74 -137zM211 562c-34 63 -83 132 -148 206l23 14c65 -73 115 -140 150 -203zM63 -3c52 89 104 199 157 329l24 -19c-46 -102 -107 -242 -155 -329zM411 36h243v177h-243v-177zM654 616h-243v-172h243v172zM654 415
h-243v-173h243v173zM256 411c-5 5 -20 16 -27 19c96 97 172 227 229 389l29 -6c-19 -55 -43 -111 -72 -168h498v-29h-230v-172h209v-29h-209v-173h209v-29h-209v-177h255v-29h-527v-76h-29v654c-38 -67 -80 -125 -126 -174z" /><glyph glyph-name="uni5206" unicode="&#x5206;" d="M371 795c-65 -163 -162 -294 -289 -393c-8 6 -17 15 -25 20c126 92 221 219 285 381zM802 441c-8 -154 -16 -292 -28 -356c-19 -101 -16 -141 -106 -147c-39 -2 -94 1 -165 6c0 11 -3 20 -9 29c50 -6 111 -8 168 -8c23 0 38 4 45 11c15 15 28 54 37 117
c10 66 19 172 28 319h-336c-30 -251 -135 -416 -345 -486l-19 22c204 66 306 221 333 464h-225v29h622zM658 805c73 -165 170 -288 291 -370c-9 -7 -17 -15 -24 -24c-119 89 -216 217 -292 383z" /><glyph glyph-name="uni521B" unicode="&#x521B;" d="M295 193c37 -1 97 -14 124 4c30 58 28 126 38 235h-277v-419c0 -28 22 -42 67 -42h215c25 0 42 10 49 29c7 18 12 60 14 127c9 -7 19 -12 30 -14c-12 -118 3 -171 -93 -171h-212c-74 2 -99 6 -99 71v448h336c-12 -134 -7 -217 -45 -284c-24 -25 -95 -15 -138 -13
c-1 11 -4 20 -9 29zM359 818c-9 -20 -17 -35 -22 -44c108 -106 191 -200 250 -282l-22 -17c-60 81 -168 203 -241 275c-65 -121 -152 -225 -262 -313c-8 5 -15 11 -24 15c134 103 231 228 291 373zM698 169h-29v542h29v-542zM787 -39c46 0 82 -10 82 27v830h29v-829
c0 -27 -12 -44 -35 -50c-17 -4 -71 -6 -162 -5c-4 9 -9 21 -14 28c35 -1 68 -1 100 -1z" /><glyph glyph-name="uni522B" unicode="&#x522B;" d="M457 756h-322v-249h322v249zM486 478h-380v307h380v-307zM275 -31c41 0 114 -15 146 5c9 11 17 40 24 89c7 52 13 134 19 245h-182c-21 -181 -83 -312 -213 -382c-7 9 -15 16 -24 21c125 65 188 190 208 361h-194v29h198c4 32 6 75 8 111h30c-2 -39 -5 -76 -9 -111h210
c-6 -121 -12 -237 -21 -285c-14 -80 -11 -110 -81 -116c-27 -2 -63 0 -110 3c-1 11 -4 21 -9 30zM653 712h29v-544h-29v544zM787 -45c46 0 82 -10 82 27v830h29v-829c0 -27 -12 -44 -35 -50c-17 -5 -71 -6 -162 -5c-4 9 -9 21 -14 28c35 -1 68 -1 100 -1z" /><glyph glyph-name="uni5230" unicode="&#x5230;" d="M578 122l2 -28l-499 -101l-8 31l246 47v203h-210v29h210v127h29v-127h221v-29h-221v-197zM566 429c-16 26 -34 51 -51 75c-223 -27 -277 -25 -395 -50c-2 11 -7 27 -11 33c70 49 124 162 166 241h-195v29h507v-29h-278c-42 -84 -92 -169 -145 -234l333 35
c-29 39 -59 78 -93 119l23 12c69 -79 123 -150 162 -215zM660 750h29v-604h-29v604zM893 14c2 -79 -94 -50 -174 -57c-1 9 -6 21 -13 35c68 -2 114 -2 138 -1c13 1 20 8 20 22v795h29v-794z" /><glyph glyph-name="uni529B" unicode="&#x529B;" d="M897 601c-12 -209 -26 -387 -39 -475s-32 -143 -53 -167c-15 -17 -38 -26 -69 -27c-35 -1 -88 1 -160 7c-2 11 -5 23 -10 30c51 -6 109 -8 166 -8c22 0 38 5 47 14c20 19 36 72 49 159c13 91 26 237 38 438h-402c-20 -323 -168 -507 -379 -646c-6 7 -14 17 -21 22
c206 134 351 309 371 624h-345v29h345c4 72 1 151 2 227h29c-1 -76 2 -155 -2 -227h433z" /><glyph glyph-name="uni529F" unicode="&#x529F;" d="M440 265c-1 -12 10 -31 -7 -31l-375 -105l-8 29l178 48v466h-166v29h358v-29h-163v-458zM649 813c0 -83 -1 -154 -5 -227h294c-7 -208 -21 -381 -31 -464c-11 -86 -26 -141 -47 -161c-48 -45 -121 -23 -217 -20c-2 10 -5 24 -10 30c49 -4 102 -7 156 -7c21 0 36 5 44 14
c18 18 33 69 44 153c11 88 22 230 31 426h-265c-15 -304 -103 -519 -312 -628c-4 7 -17 15 -24 21c205 102 292 313 307 607h-194v29h195c4 72 5 146 5 227h29z" /><glyph glyph-name="uni52A0" unicode="&#x52A0;" d="M268 827c0 -65 -2 -126 -4 -187h214c-8 -220 -22 -402 -33 -492c-11 -88 -25 -144 -45 -166c-35 -39 -90 -23 -163 -22c-1 13 -4 23 -9 30c46 1 119 -18 146 10c17 18 31 71 42 160c12 95 22 246 32 451h-185c-13 -275 -51 -519 -180 -673c-8 5 -17 10 -26 14
c128 147 164 392 177 659h-160v29h162c2 66 3 128 3 187h29zM868 46v620h-256v-620h256zM897 695v-748h-29v70h-256v-77h-29v755h314z" /><glyph glyph-name="uni52A1" unicode="&#x52A1;" d="M851 270c-10 -94 -26 -184 -36 -227c-20 -87 -47 -110 -151 -102c-27 2 -53 2 -77 4c-1 8 -4 18 -9 29c50 -2 132 -17 175 2c13 11 24 37 34 76c11 43 21 106 31 189h-342c-64 -185 -187 -263 -401 -310c-3 11 -7 21 -13 29c203 37 323 109 382 281h-308v29h317
c9 33 16 72 21 115l31 -3c-5 -39 -11 -76 -20 -112h366zM334 691c-7 -6 -15 -16 -22 -22c44 -65 111 -119 202 -162c107 46 198 104 261 184h-441zM107 547c115 65 232 173 297 285l35 -6c-25 -38 -51 -73 -79 -106c148 1 301 -3 446 2l17 -15c-62 -93 -162 -163 -275 -214
c112 -45 246 -74 402 -85c-7 -7 -13 -17 -18 -28c-159 15 -302 46 -418 98c-128 -54 -287 -91 -452 -112c-3 11 -7 20 -12 29c154 15 309 51 431 99c-84 42 -147 94 -189 155c-49 -47 -103 -87 -161 -122c-8 9 -16 16 -24 20z" /><glyph glyph-name="uni52A8" unicode="&#x52A8;" d="M478 714h-380v29h380v-29zM88 66c-2 10 -7 26 -11 33c68 92 102 245 137 371h-154v29h437v-29h-253c-31 -134 -71 -254 -119 -360l307 58c-19 55 -48 129 -71 186l26 7c46 -107 83 -204 110 -292l-29 -12c-6 25 -19 58 -27 84c-202 -41 -247 -41 -353 -75zM717 813
c-1 -74 -2 -159 -5 -227h226c-5 -206 -14 -380 -25 -462c-19 -147 -16 -190 -165 -181c-30 1 -57 3 -82 5c-1 11 -4 21 -9 29c45 -4 98 -5 148 -6c19 0 32 3 41 13c15 16 28 66 37 149c9 86 18 227 25 424h-198c-15 -269 -64 -493 -209 -627c-7 8 -17 14 -28 17
c143 127 194 349 209 610h-171v29h172c4 73 5 146 5 227h29z" /><glyph glyph-name="uni5305" unicode="&#x5305;" d="M624 180c46 0 123 -17 156 7c11 14 20 55 27 123c7 71 14 188 20 351h-574c-55 -81 -116 -148 -181 -201c-6 6 -19 14 -27 19c118 89 208 208 271 356l29 -8c-22 -51 -46 -96 -73 -137h585c-4 -155 -5 -270 -20 -390c-14 -106 -5 -144 -87 -153c-30 -3 -70 0 -117 4
c-1 12 -4 22 -9 29zM231 497v-214h335v214h-335zM231 53c5 -73 45 -72 132 -72h446c102 5 99 35 112 142c9 -7 19 -11 30 -14c-15 -125 -21 -157 -147 -157h-433c-116 4 -169 2 -169 102v472h393v-272h-364v-201z" /><glyph glyph-name="uni5316" unicode="&#x5316;" d="M79 381c-4 5 -17 19 -22 23c121 111 216 252 285 423l27 -8c-27 -67 -62 -135 -105 -203v-688h-29v643c-45 -69 -97 -133 -156 -190zM919 653c-89 -130 -221 -247 -357 -343v-267c0 -43 23 -65 70 -65h214c29 0 49 15 58 45c9 26 15 85 19 178c11 -7 21 -12 29 -15
c-11 -120 7 -237 -109 -237h-208c-82 1 -102 16 -102 96v245c-50 -36 -110 -69 -165 -101c-7 9 -15 16 -22 21c66 35 129 73 187 114v485h29v-464c126 92 245 203 327 325z" /><glyph glyph-name="uni5347" unicode="&#x5347;" d="M542 783c-61 -35 -136 -62 -217 -87v-277h358v387h29v-387h229v-29h-229v-462h-29v462h-358c-1 -242 -99 -373 -255 -464c-5 8 -12 15 -21 22c150 87 245 210 247 442h-237v29h237v269c-71 -22 -142 -41 -214 -56c-3 9 -6 16 -11 23c157 39 323 79 442 149z" /><glyph glyph-name="uni5355" unicode="&#x5355;" d="M366 658c-28 53 -65 104 -111 154l23 14c53 -57 90 -108 113 -151zM483 304v148h-294v-148h294zM189 481h294v145h-294v-145zM820 626h-307v-145h307v145zM820 452h-307v-148h307v148zM943 122h-430v-194h-30v194h-423v29h423v124h-323v380h463c41 53 79 110 114 173
l28 -14c-34 -57 -71 -110 -110 -159h194v-380h-336v-124h430v-29z" /><glyph glyph-name="uni535A" unicode="&#x535A;" d="M877 718c-45 26 -109 62 -150 83l17 22c51 -26 101 -52 150 -79zM655 576v-82h206v82h-206zM861 387v77h-206v-77h206zM626 387v77h-206v-77h206zM420 576v-82h206v82h-206zM626 679h-292v30h292v121h29v-121h289v-30h-289v-74h235v-331h-29v83h-206v-79h-29v79h-206v-83
h-29v331h235v74zM217 522v-592h-29v592h-138v30h138v277h29v-277h120v-30h-120zM444 147c57 -50 104 -94 141 -132l-24 -21c-36 41 -82 87 -139 137zM955 182h-163v-205c0 -22 -9 -36 -26 -41c-15 -4 -60 -5 -135 -5c-1 9 -9 20 -13 28c69 -1 111 -1 127 0c12 1 18 6 18 17
v206h-453v30h453v73h29v-73h163v-30z" /><glyph glyph-name="uni5373" unicode="&#x5373;" d="M153 747v-176h288v176h-288zM441 355v187h-288v-187h288zM86 -2c21 10 39 30 38 59v718h346v-448h-317v-297l248 89c-25 45 -49 85 -72 120l24 11c60 -91 108 -175 143 -252l-25 -15c-18 39 -37 79 -58 115c-181 -73 -218 -79 -311 -129c-4 9 -11 23 -16 29zM898 194
c0 -25 -10 -40 -29 -45c-17 -5 -66 -6 -149 -5c-3 10 -7 20 -12 29c71 -2 118 -2 139 -1c15 1 22 8 22 21v547h-244v-812h-29v841h302v-575z" /><glyph glyph-name="uni539F" unicode="&#x539F;" d="M412 185c-63 -82 -124 -151 -184 -207l-26 18c67 57 127 124 182 199zM324 294h492v123h-492v-123zM324 446h492v122h-492v-122zM582 -23c1 -71 -115 -38 -181 -46c-2 8 -9 20 -13 27c75 -2 123 -2 144 -1c14 1 21 7 21 19v289h-258v332h215c19 42 34 80 45 115l30 -9
c-13 -32 -33 -79 -46 -106h306v-332h-263v-288zM728 190c80 -76 144 -143 192 -200l-24 -18c-49 60 -113 128 -192 204zM48 -35c116 182 105 496 103 798h784v-29h-755c3 -297 9 -602 -108 -787c-7 8 -15 14 -24 18z" /><glyph glyph-name="uni53BB" unicode="&#x53BB;" d="M448 360c-78 -128 -161 -249 -251 -347l588 47c-54 76 -110 144 -167 204l23 14c109 -114 191 -219 244 -316l-26 -17c-18 31 -37 64 -57 91c-216 -20 -437 -31 -640 -59l-11 -4c-1 11 -5 22 -11 31c103 79 202 241 272 356h-351v29h424v235h-346v29h346v177h29v-177h353
v-29h-353v-235h429v-29h-495z" /><glyph glyph-name="uni53CA" unicode="&#x53CA;" d="M318 693c57 -241 154 -432 308 -566c113 91 196 214 240 369h-276c22 66 49 166 69 248h-341v-51zM47 -27c158 155 249 355 242 670v101h-193v29h599c-21 -87 -44 -169 -67 -248c84 1 174 -3 255 2l18 -9c-44 -174 -132 -309 -253 -410c85 -68 186 -117 303 -146
c-8 -8 -15 -17 -20 -26c-117 32 -219 83 -306 153c-93 -71 -206 -121 -336 -156c-4 11 -10 20 -17 27c129 28 240 80 330 149c-136 119 -224 284 -284 487c-2 -299 -97 -492 -249 -645c-4 7 -11 15 -22 22z" /><glyph glyph-name="uni53CB" unicode="&#x53CB;" d="M345 425c48 -124 120 -224 215 -301c95 80 163 180 202 301h-417zM802 445c-43 -142 -117 -255 -219 -339c100 -75 223 -126 370 -153c-9 -11 -15 -19 -18 -26c-149 30 -274 84 -374 161c-92 -73 -206 -126 -339 -161c-3 11 -9 20 -18 27c130 31 242 83 334 153
c-93 77 -164 175 -212 294c-47 -178 -132 -348 -252 -442c-7 6 -19 11 -27 16c169 136 252 373 293 641h-265v29h269c9 60 14 121 17 186h29c-5 -62 -8 -126 -16 -186h557v-29h-561c-10 -54 -19 -111 -31 -162c147 1 299 -3 443 2z" /><glyph glyph-name="uni53D1" unicode="&#x53D1;" d="M817 637c-36 45 -82 96 -139 153l23 15c55 -55 101 -104 138 -149zM391 397c45 -106 109 -195 192 -268c84 73 145 163 184 268h-376zM419 587c22 75 35 153 47 244l33 -5c-13 -86 -27 -165 -48 -239h464v-30h-472c-14 -49 -29 -93 -45 -131c129 1 263 -3 388 2l19 -10
c-41 -125 -110 -227 -201 -306c96 -78 211 -132 346 -162c-7 -6 -13 -14 -19 -24c-135 32 -251 88 -348 167c-89 -72 -199 -130 -323 -166c-4 9 -10 16 -16 23c123 34 232 90 318 162c-81 71 -144 157 -189 258c-74 -151 -173 -269 -308 -359c-5 7 -13 13 -23 19
c181 122 299 292 369 527c-82 -3 -198 9 -256 -11c-3 9 -7 27 -10 33c48 44 76 142 94 216l34 -9c-21 -75 -47 -141 -76 -199h222z" /><glyph glyph-name="uni53E3" unicode="&#x53E3;" d="M828 78v612h-651v-612h651zM857 719v-752h-29v82h-651v-90h-29v760h709z" /><glyph glyph-name="uni53EA" unicode="&#x53EA;" d="M911 -74c-68 82 -206 202 -300 271l23 16c127 -91 227 -179 302 -266zM51 -52c106 58 234 168 296 263l29 -10c-68 -100 -196 -211 -305 -276c-6 8 -13 16 -20 23zM198 356h604v369h-604v-369zM831 754v-427h-662v427h662z" /><glyph glyph-name="uni53EF" unicode="&#x53EF;" d="M205 514v-299h334v299h-334zM205 186v-83h-29v440h392v-357h-363zM810 -7c-4 -63 -39 -62 -111 -62h-120c-3 8 -7 19 -14 34c56 -2 136 -4 189 -1c18 1 27 12 27 29v733h-718v29h877v-29h-130v-733z" /><glyph glyph-name="uni53F0" unicode="&#x53F0;" d="M226 302v-285h548v285h-548zM197 331h606v-398h-29v55h-548v-59h-29v402zM883 387c-17 28 -41 60 -71 97c-215 -16 -482 -25 -677 -47l-12 -4c-1 10 -5 20 -10 31c124 81 242 238 331 357l29 -14c-88 -113 -198 -246 -300 -335l618 36c-55 63 -113 120 -175 172l24 16
c123 -100 213 -197 270 -291z" /><glyph glyph-name="uni53F7" unicode="&#x53F7;" d="M773 754h-546v-178h546v178zM802 547h-604v236h604v-236zM329 400c-17 -54 -36 -104 -53 -149h523c-12 -90 -29 -175 -45 -218c-25 -68 -32 -104 -113 -104c-57 0 -116 2 -167 7c-1 13 -4 22 -9 29c52 -5 113 -9 171 -9c71 0 67 28 91 86c16 39 26 101 38 180
c-178 1 -358 -1 -534 1c22 45 47 123 67 177h-225v29h852v-29h-596z" /><glyph glyph-name="uni5404" unicode="&#x5404;" d="M237 241v-234h514v234h-514zM208 270h572v-345h-29v53h-514v-56h-29v348zM292 668c55 -69 125 -133 211 -190c91 59 173 128 232 209h-426zM68 524c123 73 247 191 317 312l29 -10c-27 -42 -53 -79 -80 -110c143 1 291 -3 431 2l18 -14c-62 -96 -153 -175 -255 -243
c133 -86 275 -146 426 -181c-5 -5 -11 -14 -19 -25c-155 39 -299 103 -431 191c-127 -80 -292 -153 -455 -193c-1 8 -11 21 -15 27c157 36 320 105 444 182c-84 59 -153 121 -206 187c-53 -55 -113 -103 -179 -145c-7 6 -18 17 -25 20z" /><glyph glyph-name="uni5408" unicode="&#x5408;" d="M236 287v-258h536v258h-536zM207 316h594v-381h-29v65h-536v-69h-29v385zM754 499v-29h-508v29h508zM935 437c-176 87 -317 182 -432 316c-113 -142 -257 -248 -431 -319c-5 7 -14 17 -21 21c209 82 367 207 474 375l25 -12c-9 -13 -22 -33 -30 -44
c112 -134 259 -228 438 -312c-9 -7 -17 -15 -23 -25z" /><glyph glyph-name="uni540D" unicode="&#x540D;" d="M811 20v269h-516v-269h516zM93 529c132 67 264 182 338 302l35 -6c-23 -36 -48 -68 -74 -97c140 1 286 -3 423 2l17 -13c-94 -175 -280 -313 -480 -399h488v-388h-29v61h-516v-62h-29v354c-67 -23 -129 -42 -184 -55c-2 9 -7 18 -16 28c147 31 293 89 409 156
c-51 46 -128 107 -184 144l22 17c71 -46 133 -94 188 -145c116 71 221 162 287 271h-423c-71 -75 -154 -138 -251 -190c-4 5 -16 15 -21 20z" /><glyph glyph-name="uni5448" unicode="&#x5448;" d="M785 755h-571v-214h571v214zM814 512h-629v272h629v-272zM930 -14v-29h-860v29h414v178h-330v29h330v168h-365v29h763v-29h-369v-168h332v-29h-332v-178h417z" /><glyph glyph-name="uni5458" unicode="&#x5458;" d="M230 600h543v152h-543v-152zM802 781v-210h-601v210h601zM512 346c-1 -61 5 -133 -11 -179c-31 -83 -92 -125 -179 -165c-61 -27 -137 -51 -229 -72c-3 8 -11 20 -16 27c146 32 262 64 345 141c41 38 61 76 61 151v97h29zM538 107c117 -41 288 -105 385 -153l-16 -26
c-106 53 -234 106 -385 158zM834 456v-368h-29v339h-602v-339h-29v368h660z" /><glyph glyph-name="uni548C" unicode="&#x548C;" d="M485 796c-54 -21 -116 -37 -186 -50v-209h204v-29h-204v-34c67 -71 128 -143 183 -217l-23 -24c-30 43 -127 165 -160 202v-503h-29v518c-64 -151 -137 -268 -219 -351c-4 8 -11 16 -21 25c98 97 176 225 233 384h-206v29h213v204c-57 -11 -126 -20 -188 -28
c-1 7 -5 15 -10 25c125 16 300 45 390 81zM860 85v623h-286v-623h286zM889 737v-760h-29v79h-286v-86h-29v767h344z" /><glyph glyph-name="uni54C1" unicode="&#x54C1;" d="M728 756h-449v-246h449v246zM757 481h-507v304h507v-304zM125 322v-305h271v305h-271zM96 351h329v-410h-29v47h-271v-59h-29v422zM886 17v305h-297v-305h297zM915 351v-414h-29v51h-297v-59h-29v422h355z" /><glyph glyph-name="uni552E" unicode="&#x552E;" d="M218 184v-171h579v171h-579zM189 213h637v-285h-29v56h-579v-56h-29v285zM216 335h304v101h-304v-101zM520 681h-304v-92h304v92zM520 560h-304v-95h304v95zM885 335v-29h-669v-47h-29v394c-36 -51 -75 -95 -118 -134c-7 7 -16 14 -25 19c91 77 161 174 211 292l30 -8
c-16 -36 -39 -78 -59 -112h313c-15 33 -36 70 -63 112l26 8c29 -41 52 -81 69 -120h293v-29h-315v-92h270v-29h-270v-95h275v-29h-275v-101h336z" /><glyph glyph-name="uni5546" unicode="&#x5546;" d="M423 438c-53 -67 -112 -124 -177 -172c-6 7 -14 14 -25 21c70 49 128 103 173 162zM355 245v-153h287v153h-287zM355 63v-53h-29v264h345v-211h-316zM781 273c-61 51 -141 115 -203 156l19 22c61 -44 154 -108 202 -152zM763 -38c43 0 77 -10 77 23v499h-676v-554h-29
v583h458c35 45 67 94 96 148l31 -10c-31 -51 -62 -97 -95 -138h244v-528c0 -24 -10 -39 -30 -44c-16 -4 -70 -5 -161 -5c-2 8 -6 17 -13 27c34 -1 67 -1 98 -1zM310 665c32 -45 56 -83 71 -114l-23 -15c-22 41 -46 80 -71 118zM481 832c19 -38 39 -85 52 -122h400v-29h-865
v29h436c-13 38 -29 76 -47 114z" /><glyph glyph-name="uni559C" unicode="&#x559C;" d="M483 718h-400v30h400v83h31v-83h408v-30h-408v-96h333v-29h-689v29h325v96zM222 134v-139h557v139h-557zM192 164h617v-233h-30v35h-557v-37h-30v235zM759 387v110h-522v-110h522zM944 269v-30h-887v30h274c-9 29 -23 55 -41 79l26 10c21 -27 37 -57 48 -89h262
c19 29 35 58 48 89h-466v168h580v-168h-96l13 -7c-17 -32 -32 -59 -47 -82h286z" /><glyph glyph-name="uni56F4" unicode="&#x56F4;" d="M589 154c39 -1 102 -12 134 2c13 12 24 58 34 138h-245v-243h-30v243h-286v29h286v120h-225v29h225v115h-271v29h271v103h30v-103h282v-29h-282v-115h240v-29h-240v-120h278c-9 -91 -28 -176 -46 -188c-29 -21 -100 -11 -145 -10c-1 9 -5 19 -10 29zM878 14v740h-755
v-740h755zM907 783v-852h-29v54h-755v-54h-29v852h813z" /><glyph glyph-name="uni56FE" unicode="&#x56FE;" d="M300 189c157 -20 291 -49 402 -88l-14 -27c-98 34 -287 76 -404 89zM407 313c67 -13 173 -47 226 -74l-15 -27c-63 33 -138 59 -226 78zM377 600c-5 -7 -11 -14 -17 -20c33 -44 83 -86 148 -126c73 43 129 92 170 146h-301zM194 481c89 54 176 140 227 227l29 -9
c-13 -23 -29 -46 -48 -70c100 1 206 -3 303 2l19 -13c-41 -66 -104 -126 -190 -179c87 -48 184 -82 291 -102c-8 -7 -14 -15 -19 -26c-109 23 -208 61 -297 113c-89 -52 -203 -96 -319 -122c-5 8 -11 20 -17 25c112 23 222 65 310 113c-58 36 -105 77 -142 122
c-36 -37 -77 -70 -122 -100c-7 6 -19 15 -25 19zM875 6v746h-750v-746h750zM904 781v-852h-29v48h-750v-48h-29v852h808z" /><glyph glyph-name="uni5708" unicode="&#x5708;" d="M348 590c-13 33 -35 64 -67 95l25 12c31 -31 53 -62 66 -93zM635 332c-13 -124 18 -165 -94 -157c-18 1 -34 2 -49 3c-1 10 -4 19 -8 27c30 0 85 -10 109 3c5 6 9 38 12 95h-238v-187c0 -19 22 -29 65 -29h211c54 5 43 27 51 92c7 -6 16 -10 27 -12
c-7 -80 -3 -107 -75 -107h-211c-69 3 -97 -1 -97 56v216h297zM631 424c53 -76 126 -128 220 -157c-9 -7 -16 -15 -22 -24c-100 36 -177 96 -230 181h-204c-55 -74 -127 -135 -218 -184c-6 8 -16 19 -23 24c85 40 153 93 206 160h-179v29h201c21 31 39 61 54 92h-194v29h206
c21 47 36 96 47 149l30 -5c-11 -51 -26 -99 -45 -144h139c29 45 51 88 68 128l27 -14c-24 -46 -46 -84 -65 -114h131v-29h-313c-15 -34 -32 -65 -50 -92h412v-29h-198zM878 4v750h-755v-750h755zM907 783v-852h-29v44h-755v-44h-29v852h813z" /><glyph glyph-name="uni5728" unicode="&#x5728;" d="M369 630c-37 -78 -77 -147 -124 -211v-485h-29v446c-45 -53 -92 -98 -143 -137c-5 7 -14 17 -20 21c119 89 216 219 284 366h-267v29h280c23 51 44 108 62 171l30 -8c-16 -54 -36 -108 -60 -163h548v-29h-561zM933 -19v-29h-610v29h288v339h-247v29h247v220h29v-220h254
v-29h-254v-339h293z" /><glyph glyph-name="uni5730" unicode="&#x5730;" d="M220 206c41 18 99 42 135 58l6 -27c-101 -44 -202 -87 -303 -130l-12 29c47 17 95 37 145 59v357h-141v29h141v240h29v-240h134v-29h-134v-346zM466 50c2 -60 23 -67 88 -67h289c30 0 50 11 60 32c9 19 16 62 19 128c9 -7 19 -12 29 -14c-12 -123 -4 -174 -112 -174h-280
c-92 3 -122 11 -122 97v373l-105 -44l-12 27l117 49v284h29v-272l187 78v284h29v-271l186 77l19 19c7 -5 26 -4 19 -17c-1 -121 -1 -312 -13 -401c-8 -61 -73 -49 -141 -50c-3 13 -6 23 -10 30c47 3 117 -21 124 31c12 75 11 259 11 359l-195 -81v-384h-29v373l-187 -79
v-387z" /><glyph glyph-name="uni5757" unicode="&#x5757;" d="M361 237c-101 -44 -203 -87 -304 -130l-12 29c47 19 106 42 149 60v356h-134v29h134v240h29v-240h124v-29h-124v-344c41 17 94 41 132 56zM647 621c-1 -87 4 -188 -7 -263h203v263h-196zM611 358c11 75 6 175 7 263h-216v29h216v170h29v-170h225v-292h77v-29h-279
c45 -176 144 -315 296 -375c-10 -9 -17 -18 -21 -27c-153 68 -255 202 -306 402h-3c-36 -210 -138 -309 -307 -401c-5 9 -12 16 -21 23c163 86 262 181 299 378h-241v29h245z" /><glyph glyph-name="uni57CE" unicode="&#x57CE;" d="M893 684c-35 36 -83 73 -143 111l20 19c58 -34 105 -70 142 -108zM338 184c-92 -35 -182 -71 -273 -107l-10 31c35 11 92 33 131 47v397h-123v29h123v240h29v-240h113v-29h-113v-385l118 45zM267 -53c82 99 115 240 115 425v290h304l-4 169h30l2 -169h231v-29h-230
c7 -173 21 -316 43 -428c52 85 94 186 126 305l29 -6c-33 -130 -82 -244 -146 -341c31 -129 72 -194 122 -194c23 0 36 60 41 180c8 -7 17 -11 27 -14c-3 -75 -10 -126 -19 -152c-10 -29 -27 -44 -52 -44c-59 0 -106 65 -141 194c-54 -76 -119 -141 -196 -194
c-7 8 -15 15 -24 22c81 52 152 122 212 209c-29 134 -44 294 -50 463h-276v-163h205c-3 -113 -6 -226 -8 -266c-4 -94 -16 -108 -105 -105c-20 1 -38 2 -54 3c-1 12 -5 22 -10 29c30 -3 66 -4 100 -4c46 0 31 24 40 87c6 44 6 120 7 227h-175c6 -218 -22 -398 -120 -514
c-5 7 -13 14 -24 20z" /><glyph glyph-name="uni57DF" unicode="&#x57DF;" d="M901 696c-33 38 -78 75 -134 112l20 18c54 -34 99 -70 135 -109zM325 198c-90 -40 -179 -80 -268 -120l-11 29l126 53v392h-122v29h122v240h29v-240h106v-29h-106v-379l118 52zM657 154l-356 -110l-11 30c121 35 243 70 363 107zM569 491h-184v-216h184v216zM598 520
v-274h-242v274h242zM725 174c-27 138 -38 294 -44 469h-356v29h355l-3 158h30l2 -158h229v-29h-228c5 -173 17 -318 37 -435c58 88 104 192 139 311l29 -7c-39 -133 -93 -248 -160 -345c30 -138 70 -207 119 -207c22 0 35 54 40 163c10 -7 19 -12 27 -14
c-3 -69 -9 -115 -18 -139c-10 -27 -27 -40 -51 -40c-61 0 -108 69 -139 206c-59 -78 -126 -143 -203 -195c-7 7 -15 14 -24 22c83 53 156 124 219 211z" /><glyph glyph-name="uni589E" unicode="&#x589E;" d="M530 702c-18 36 -42 73 -73 110l25 12c33 -38 58 -74 74 -108zM333 213l5 -29l-273 -107l-10 31l131 48v396h-123v29h123v240h29v-240h113v-29h-113v-384zM463 257v-113h344v113h-344zM807 11v104h-344v-104h344zM434 286h402v-352h-29v48h-344v-48h-29v352zM485 612
c39 -50 66 -98 81 -144l-26 -12c-13 43 -40 92 -80 147zM815 600c-30 -50 -70 -111 -103 -150l-23 11c39 48 71 99 98 152zM860 655h-209v-258h209v258zM406 397h216v258h-216v-258zM889 684v-316h-512v316h318c37 45 69 94 95 148l30 -16c-27 -41 -63 -97 -91 -132h160z
" /><glyph glyph-name="uni5904" unicode="&#x5904;" d="M671 103h-30v723h30v-269l21 11c94 -93 170 -180 227 -261l-25 -16c-56 83 -130 170 -223 263v-451zM237 642c-9 -28 -21 -71 -30 -95c23 -124 61 -233 116 -321c68 116 111 254 134 416h-220zM341 199c94 -131 236 -201 462 -198h144c-7 -10 -12 -20 -13 -30h-132
c-231 -2 -382 68 -478 202c-67 -104 -152 -184 -255 -241c-6 7 -17 19 -24 23c110 59 195 140 262 244c-51 77 -90 178 -118 303c-29 -70 -61 -129 -98 -176c-7 6 -15 12 -24 17c88 113 152 300 178 481l30 -12c-7 -48 -17 -94 -30 -141c75 1 155 -3 227 2l19 -8
c-24 -183 -74 -338 -150 -466z" /><glyph glyph-name="uni590D" unicode="&#x590D;" d="M59 567c90 64 182 164 230 264l28 -9c-19 -38 -40 -71 -61 -99h627v-29h-649c-45 -56 -99 -111 -157 -155c-4 9 -10 19 -18 28zM286 213c51 -59 125 -108 221 -148c102 41 179 91 231 150c-150 -1 -305 3 -452 -2zM258 359h521v95h-521v-95zM258 483h521v92h-521v-92z
M791 230c-58 -78 -145 -137 -246 -180c115 -44 258 -73 406 -86c-7 -7 -14 -20 -20 -29c-160 16 -302 49 -426 99c-126 -52 -285 -86 -448 -105c-1 9 -5 19 -14 30c152 14 305 47 425 91c-87 40 -154 87 -202 141c-43 -43 -89 -79 -137 -109c-7 8 -15 15 -23 22
c100 59 179 135 237 226h-114v274h579v-274h-431c-20 -33 -41 -61 -62 -86c151 1 308 -3 456 2z" /><glyph glyph-name="uni5916" unicode="&#x5916;" d="M56 381c97 108 166 274 206 450l29 -6c-13 -52 -27 -109 -44 -155c78 1 161 -3 236 2l19 -8c-52 -334 -186 -586 -427 -729c-6 9 -14 17 -23 23c131 76 234 187 305 326c-48 51 -113 100 -194 147l18 18c72 -39 135 -85 188 -137c46 97 79 207 98 329h-231
c-43 -116 -95 -209 -154 -279c-8 7 -17 13 -26 19zM673 525c120 -76 213 -150 278 -223l-20 -23c-63 70 -153 144 -269 221v-569h-29v900h29v-316z" /><glyph glyph-name="uni591A" unicode="&#x591A;" d="M134 558c130 60 265 163 341 273l36 -7c-24 -32 -49 -61 -75 -87c104 1 213 -3 314 2l18 -14c-132 -212 -381 -342 -658 -413c-4 11 -10 21 -17 30c134 28 268 81 373 143c-41 36 -90 69 -149 100l21 20c67 -34 119 -69 156 -104c90 55 171 125 227 207h-315
c-71 -68 -157 -125 -250 -170c-6 9 -13 15 -22 20zM218 186c163 64 330 178 419 306l35 -7c-18 -28 -47 -59 -71 -84c104 1 213 -3 313 2l19 -14c-141 -277 -453 -406 -821 -461c-3 11 -7 21 -14 29c193 25 376 77 515 154c-37 41 -85 83 -144 127l25 14
c48 -35 111 -86 147 -125c105 62 192 142 248 245h-319c-92 -84 -206 -156 -330 -208c-5 8 -13 15 -22 22z" /><glyph glyph-name="uni5927" unicode="&#x5927;" d="M469 525c16 93 24 193 22 304h29c-1 -109 -6 -210 -21 -304h437v-29h-402c68 -239 211 -449 413 -539c-7 -9 -15 -17 -22 -26c-206 99 -351 317 -421 565h-10c-53 -277 -193 -466 -422 -566c-5 6 -17 17 -23 22c225 95 361 278 416 544h-397v29h401z" /><glyph glyph-name="uni5929" unicode="&#x5929;" d="M510 713c-1 -97 3 -199 -9 -284h437v-29h-410c67 -216 214 -383 425 -449c-9 -8 -16 -16 -20 -24c-213 73 -357 230 -434 473h-3c-50 -248 -216 -374 -422 -472c-6 7 -12 18 -19 23c200 95 359 212 411 449h-397v29h402c14 83 9 187 10 284h-378v29h789v-29h-382z" /><glyph glyph-name="uni5B57" unicode="&#x5B57;" d="M123 534h-29v181h414c-14 34 -36 71 -65 111l25 11c35 -44 59 -85 73 -122h366v-181h-29v152h-755v-152zM772 528c-61 -64 -171 -139 -257 -183v-58h407v-29h-407v-281c0 -23 -10 -37 -30 -42c-15 -4 -65 -6 -150 -6c-4 11 -9 20 -14 27c79 -1 127 -1 143 0
c15 1 22 7 22 20v282h-411v29h411v72c85 40 161 91 228 153h-481v29c172 1 349 -3 517 2z" /><glyph glyph-name="uni5B58" unicode="&#x5B58;" d="M357 698c17 42 31 82 45 131l30 -8c-11 -40 -29 -84 -43 -123h541v-29h-554c-39 -92 -86 -174 -139 -247v-491h-29v453c-43 -53 -91 -100 -145 -142c-5 8 -12 15 -20 22c129 98 231 241 302 405h-275v29h287zM880 510c-53 -61 -148 -130 -226 -171v-83h299v-29h-299v-246
c0 -79 -128 -40 -201 -50c-2 7 -7 17 -14 28c89 -2 143 -2 163 0c15 1 23 8 23 21v247h-304v29h304v96c77 38 144 85 200 141h-411v29c148 1 301 -3 445 2z" /><glyph glyph-name="uni5B89" unicode="&#x5B89;" d="M137 526h-29v181h387c-19 43 -38 82 -57 116l29 7c19 -36 47 -89 61 -123h362v-181h-29v152h-724v-152zM363 408c-39 -62 -74 -114 -106 -157c88 -26 183 -64 268 -97c73 69 127 154 160 254h-322zM350 437c35 59 68 119 94 178l27 -6c-24 -53 -54 -110 -91 -172h546v-29
h-209c-35 -107 -89 -196 -163 -266c141 -58 252 -114 333 -168l-25 -28c-80 54 -192 111 -335 172c-106 -88 -239 -142 -401 -182c-5 9 -13 18 -23 25c168 36 300 93 395 170c-97 40 -192 75 -286 104c41 51 81 108 120 173h-253v29h271z" /><glyph glyph-name="uni5B98" unicode="&#x5B98;" d="M246 191v-183h543v183h-543zM246 549v-172h507v172h-507zM246 220h572v-285h-29v44h-543v-50h-29v649h565v-230h-536v-128zM911 720v-160h-29v131h-763v-131h-29v160h422c-11 33 -25 68 -44 107l29 6c19 -36 35 -74 47 -113h367z" /><glyph glyph-name="uni5B9E" unicode="&#x5B9E;" d="M133 519h-29v177h414c-19 45 -43 86 -70 125l28 9c34 -50 58 -93 73 -130l-10 -4h358v-177h-29v148h-735v-148zM399 447c-37 43 -87 83 -150 120l20 19c65 -39 115 -78 150 -118zM170 427c71 -39 125 -80 163 -122l-19 -24c-43 47 -98 89 -163 126zM903 -62
c-92 76 -232 154 -358 210l17 21c126 -55 271 -133 361 -210zM553 609c-4 -136 -12 -273 -45 -372h423v-29h-434c-69 -161 -193 -228 -393 -272c-3 8 -13 19 -18 26c191 40 310 99 379 246h-390v29h402c35 95 43 240 46 372h30z" /><glyph glyph-name="uni5BA2" unicode="&#x5BA2;" d="M114 575h-29v156h427c-14 30 -33 62 -58 96l26 9c27 -35 49 -70 66 -105h367v-156h-29v127h-770v-127zM277 204v-207h455v207h-455zM248 233h513v-301h-29v36h-455v-36h-29v301zM323 552c43 -61 103 -115 180 -163c86 51 153 106 200 164zM91 417c112 56 225 149 289 248
l33 -6c-19 -27 -39 -53 -61 -77c127 1 259 -3 382 2l19 -15c-55 -77 -135 -143 -223 -196c123 -70 265 -117 424 -142c-8 -8 -14 -17 -18 -26c-165 27 -309 78 -432 152c-123 -71 -285 -133 -443 -168c-1 7 -7 16 -16 27c151 32 312 91 431 158c-73 47 -131 100 -174 157
c-55 -51 -118 -95 -189 -133c-8 9 -15 16 -22 19z" /><glyph glyph-name="uni5BB6" unicode="&#x5BB6;" d="M127 546h-29v185h393c-17 34 -34 68 -53 93l28 9c26 -38 45 -72 58 -102h385v-185h-29v156h-753v-156zM437 475c52 -49 91 -111 117 -186c99 61 182 122 251 184l25 -18c-49 -43 -122 -93 -180 -133c58 -164 159 -273 302 -328c-9 -8 -16 -16 -20 -24
c-143 60 -244 172 -305 336l-65 -40c39 -145 27 -334 -132 -334c-26 0 -56 1 -89 3c0 8 -3 17 -8 28c122 -14 196 -8 214 102c8 48 8 99 -3 154c-123 -106 -273 -185 -451 -236c-3 9 -9 18 -17 27c154 36 366 145 461 238c-10 40 -23 75 -40 104
c-89 -69 -262 -151 -384 -190c-3 9 -9 18 -17 27c120 31 306 119 388 186c-19 33 -42 61 -68 86c-87 -51 -195 -97 -303 -132c-5 8 -13 22 -20 25c139 41 291 106 385 181h-276v29h596v-29h-279c-25 -22 -52 -42 -82 -60z" /><glyph glyph-name="uni5BB9" unicode="&#x5BB9;" d="M123 578h-29v148h416c-16 33 -36 71 -56 98l27 9c25 -35 45 -70 61 -107h364v-148h-29v119h-754v-119zM630 623c118 -71 210 -139 275 -205l-19 -23c-71 73 -163 143 -274 210zM86 417c93 50 197 131 259 206l29 -9c-66 -79 -171 -165 -264 -220c-7 9 -15 16 -24 23z
M766 254c-106 62 -192 133 -266 223c-65 -80 -149 -154 -254 -223h520zM739 -3v228h-480v-228h480zM518 499c104 -134 259 -228 431 -300c-9 -7 -16 -15 -22 -26c-61 27 -114 54 -159 80v-318h-29v33h-480v-40h-29v315c-54 -33 -108 -60 -161 -83c-6 8 -16 18 -23 24
c202 81 357 199 465 356l26 -14c-7 -10 -13 -19 -19 -27z" /><glyph glyph-name="uni5BC6" unicode="&#x5BC6;" d="M115 552h-29v181h409c-7 35 -16 68 -29 100l28 4c14 -35 25 -70 32 -104h392v-181h-29v152h-774v-152zM390 663c76 -40 133 -80 172 -121l-20 -22c-41 45 -98 86 -171 124zM56 355c55 42 110 118 142 190l25 -12c-36 -71 -88 -149 -143 -193zM754 438
c-12 -105 0 -145 -94 -145h-238c-63 0 -97 12 -104 37c-78 -33 -161 -62 -248 -87c-7 12 -14 21 -22 27c95 25 185 54 267 89v210h29v-196c144 65 273 148 362 257l28 -14c-96 -115 -234 -207 -388 -274c3 -13 28 -20 73 -20h240c73 7 56 39 66 129c10 -7 20 -11 29 -13z
M806 192h29v-265h-29v55h-633v210h29v-181h282v239h29v-239h293v181zM763 542c81 -66 140 -129 179 -190l-24 -18c-39 63 -99 127 -178 192z" /><glyph glyph-name="uni5BCC" unicode="&#x5BCC;" d="M200 250v-109h282v109h-282zM813 250h-302v-109h302v109zM813 -1v113h-302v-113h302zM200 -1h282v113h-282v-113zM171 279h671v-344h-29v35h-613v-42h-29v351zM802 596h-601v29h601v-29zM261 387h477v104h-477v-104zM232 358v162h535v-162h-535zM912 738v-160h-29v131
h-763v-131h-29v160h406c-21 35 -39 64 -55 87l26 12c24 -32 45 -65 64 -99h380z" /><glyph glyph-name="uni5BF9" unicode="&#x5BF9;" d="M422 702c-25 -149 -67 -282 -126 -398c39 -66 86 -142 117 -212l-28 -18c-24 53 -59 120 -106 199c-61 -114 -134 -202 -219 -263c-6 11 -14 19 -23 25c84 56 159 145 225 268c-63 103 -124 195 -183 276l24 14c60 -79 118 -164 174 -257c50 101 88 217 110 342h-325v29
c113 1 231 -3 340 2zM712 -42c44 0 77 -9 77 26v583h-311v29h311v232h29v-232h132v-29h-132v-583c0 -26 -11 -42 -34 -48c-16 -4 -67 -6 -152 -5l-13 28c32 -1 63 -1 93 -1zM644 180c-19 73 -59 156 -120 247l27 10c61 -89 102 -170 121 -245z" /><glyph glyph-name="uni5C06" unicode="&#x5C06;" d="M586 718c-61 -52 -130 -95 -205 -129l-19 18c133 60 229 134 288 222l29 -11c-14 -21 -34 -44 -61 -71c89 1 184 -3 270 2l19 -12c-96 -188 -292 -293 -523 -349c-2 7 -11 20 -16 25c96 21 189 53 266 95c-28 41 -67 81 -116 120l23 15c53 -42 93 -82 118 -120
c94 55 162 120 205 195h-278zM205 503c-31 59 -79 118 -145 177l23 16c69 -62 118 -120 146 -174zM256 829h29v-899h-29v395c-61 -62 -122 -124 -184 -185l-24 22c53 48 123 115 208 202v465zM461 247c68 -62 117 -122 146 -181l-25 -18c-29 59 -77 120 -146 184zM807 -20
c3 -77 -112 -43 -182 -51c-1 5 -6 15 -13 30c73 -2 122 -2 145 -1c14 1 21 8 21 21v329h-430v29h430v151h29v-151h133v-29h-133v-328z" /><glyph glyph-name="uni5C31" unicode="&#x5C31;" d="M873 617c-20 45 -53 92 -99 141l23 13c47 -48 80 -94 101 -137zM515 668h-454v29h242c-13 39 -32 81 -57 126l27 8c27 -46 48 -91 61 -134h181v-29zM71 54c43 54 78 133 100 211l29 -5c-25 -91 -59 -164 -101 -221c-6 5 -19 11 -28 15zM155 373h283v157h-283v-157z
M313 344v-370c-8 -52 -40 -33 -115 -38c-3 9 -7 17 -11 25c45 -1 73 0 83 0c9 0 14 4 14 13v370h-158v215h341v-215h-154zM452 91c-14 57 -39 115 -74 174l25 11c37 -60 62 -118 76 -174zM703 828c-1 -87 -2 -184 -8 -262h248v-29h-250c-20 -260 -80 -478 -228 -606
c-8 5 -16 10 -25 14c146 122 204 340 224 592h-141v29h143c6 79 7 175 7 262h30zM759 33c1 -46 7 -49 45 -49c48 0 116 -15 121 32c1 12 5 47 6 106c8 -7 16 -11 25 -12c-7 -68 13 -146 -59 -150c-28 -2 -63 -2 -94 -2c-64 0 -73 10 -73 86v384h29v-395z" /><glyph glyph-name="uni5C55" unicode="&#x5C55;" d="M181 748v-139h666v139h-666zM41 -54c127 185 112 515 111 831h724v-197h-695c5 -259 -16 -496 -115 -650c-6 6 -14 11 -25 16zM431 275h253v141h-253v-141zM626 29c-195 -56 -228 -56 -326 -96c-3 10 -9 20 -17 31c23 10 47 30 46 61v221h-136v29h209v141h-175v29h175
v104h29v-104h253v104h29v-104h194v-29h-194v-141h231v-29h-382c25 -55 59 -104 103 -147c71 39 132 80 184 122l23 -17c-51 -43 -122 -87 -187 -123c73 -63 162 -106 267 -129c-9 -9 -15 -17 -19 -25c-197 49 -330 155 -400 319h-173v-255l263 65c0 -9 2 -19 3 -27z" /><glyph glyph-name="uni5C5E" unicode="&#x5C5E;" d="M181 755v-123h660v123h-660zM41 -48c127 186 112 516 111 832h718v-181h-689c5 -264 -13 -509 -115 -666c-4 4 -18 11 -25 15zM546 309v96h-234v-96h234zM575 405v-96h241v96h-241zM255 524c165 1 409 16 540 37l24 -25c-65 -11 -147 -20 -244 -26v-76h270v-154h-270v-79
h312v-229c0 -19 -8 -31 -24 -36c-13 -4 -57 -6 -132 -6c-1 7 -5 16 -12 27c63 -2 103 -2 122 -1c11 1 17 6 17 16v200h-283v-99l144 6c-20 23 -38 42 -55 57l22 12c53 -51 95 -98 127 -139l-22 -15l-48 58l-412 -18l-2 31l217 7v100h-276v-245h-29v274h305v79h-263v154h263
v74c-98 -7 -192 -10 -282 -11c-1 8 -4 17 -9 27z" /><glyph glyph-name="uni5C82" unicode="&#x5C82;" d="M876 601h-744v188h29v-159h322v201h30v-201h334v159h29v-188zM947 91c-14 -120 -24 -144 -150 -144h-463c-72 0 -119 5 -142 15c-25 10 -38 32 -38 66v232h674v180h-699v29h728v-238h-674v-203c0 -21 9 -34 27 -41c19 -7 57 -11 116 -11h474c104 4 105 23 117 127
c11 -6 21 -10 30 -12z" /><glyph glyph-name="uni5DE5" unicode="&#x5DE5;" d="M942 43v-29h-882v29h425v636h-376v29h789v-29h-384v-636h428z" /><glyph glyph-name="uni5E73" unicode="&#x5E73;" d="M942 303h-430v-373h-29v373h-423v29h423v396h-372v29h776v-29h-375v-396h430v-29zM215 663c55 -93 91 -176 110 -249l-26 -11c-21 76 -58 160 -109 251zM811 658c-39 -87 -93 -195 -136 -263l-25 11c41 63 100 186 131 264z" /><glyph glyph-name="uni5E93" unicode="&#x5E93;" d="M160 693c0 -284 14 -584 -93 -769c-7 9 -15 14 -24 17c107 180 87 494 88 781h411c-17 32 -38 62 -63 91l24 13c31 -34 56 -69 74 -104h368v-29h-785zM325 277c-1 8 -6 26 -10 31c21 6 39 41 51 60c25 38 57 98 78 143h-191v29h206c15 31 29 67 44 106l29 -13
c-12 -29 -26 -60 -43 -93h409v-29h-422c-35 -69 -70 -135 -109 -192h244v127h29v-127h245v-29h-245v-150h310v-29h-310v-181h-29v181h-389v29h389v150h-197c-41 0 -68 0 -89 -13z" /><glyph glyph-name="uni5E94" unicode="&#x5E94;" d="M549 699c-15 37 -38 78 -68 123l26 11c32 -47 55 -88 70 -121zM46 -60c104 172 88 470 88 748h798v-29h-769c1 -274 12 -561 -93 -736c-6 7 -14 12 -24 17zM531 550c32 -100 71 -242 87 -343l-28 -10c-15 100 -54 242 -85 342zM294 502c40 -98 91 -241 114 -342l-27 -13
c-23 100 -73 245 -112 343zM948 13v-29h-746v29h424c102 172 175 354 218 545l29 -15c-51 -186 -131 -379 -217 -530h292z" /><glyph glyph-name="uni5EFA" unicode="&#x5EFA;" d="M644 705v-103h186v103h-186zM830 573h-186v-107h186v107zM615 705h-215v29h215v89h29v-89h215v-132h83v-29h-83v-136h-215v-105h242v-29h-242v-113h286v-29h-286v-132h-29v132h-276v29h276v113h-231v29h231v105h-223v29h223v107h-290v29h290v103zM225 137
c95 -110 241 -149 448 -149h280c-8 -10 -13 -20 -15 -29h-265c-212 -2 -364 38 -462 150c-37 -71 -83 -127 -138 -170c-7 9 -14 16 -23 23c54 42 101 99 141 172c-38 50 -68 114 -91 192l25 13c21 -71 48 -130 79 -175c39 79 66 176 82 291h-165c48 71 112 190 158 276h-208
v29h257c-51 -93 -102 -186 -156 -276c43 1 89 -1 130 1l18 -7c-17 -134 -49 -248 -95 -341z" /><glyph glyph-name="uni5F00" unicode="&#x5F00;" d="M672 401v327h-330c-1 -107 1 -222 -1 -327h331zM942 372h-241v-444h-29v444h-332c-11 -224 -107 -353 -252 -446c-7 10 -15 17 -22 22c141 88 233 209 245 424h-252v29h253c2 104 0 220 1 327h-213v29h808v-29h-207v-327h241v-29z" /><glyph glyph-name="uni5F0F" unicode="&#x5F0F;" d="M863 662c-36 42 -89 87 -159 136l22 18c65 -43 118 -86 159 -131zM328 50c80 21 161 39 242 59l4 -27c-195 -50 -359 -91 -494 -122l-12 28l231 55v341h-208v29h451v-29h-214v-334zM595 627c-5 64 -6 126 -8 199h30c0 -66 4 -135 7 -199h318v-29h-316
c13 -197 42 -353 87 -468c45 -116 99 -174 163 -174c29 0 46 66 53 198c7 -6 16 -10 27 -13c-4 -83 -11 -138 -22 -167c-11 -32 -31 -48 -60 -48c-75 0 -136 63 -185 189c-46 118 -77 279 -92 483h-538v29h536z" /><glyph glyph-name="uni5F3A" unicode="&#x5F3A;" d="M114 -30c43 0 117 -17 148 5c13 9 21 39 29 86c8 49 16 127 23 233c-84 0 -170 -1 -253 1c14 72 26 157 36 255h232v197h-265v29h294v-255h-235c-8 -60 -18 -147 -27 -198h249c-9 -112 -15 -222 -26 -271c-17 -76 -16 -109 -86 -114c-29 -2 -65 0 -110 4
c-1 13 -4 22 -9 28zM642 219v187h-186v-187h186zM672 406v-187h191v187h-191zM477 578h360v169h-360v-169zM926 -78c-10 24 -23 49 -40 74c-165 -13 -335 -28 -500 -40l-7 31c83 5 178 12 263 18v185h-215v245h215v114h-194v227h418v-227h-194v-114h220v-245h-220v-182
c59 3 125 7 197 14c-25 37 -53 75 -86 112l25 14c50 -55 114 -144 143 -210z" /><glyph glyph-name="uni5F55" unicode="&#x5F55;" d="M851 345c-55 -52 -141 -116 -210 -161c84 -91 187 -154 310 -188c-9 -8 -16 -16 -20 -24c-189 57 -327 173 -415 346v-340c0 -24 -10 -39 -30 -44c-17 -5 -66 -6 -148 -5c-1 8 -9 22 -13 29c72 -2 119 -2 141 -1c14 1 21 7 21 20v203c-129 -57 -258 -115 -388 -171
l-16 26c136 56 270 114 404 172v209h-416v29h687c3 47 6 91 8 132h-593v29h595c3 45 5 89 6 132h-627v29h631c6 6 18 0 27 0c-4 -103 -10 -211 -17 -322h149v-29h-421v-36c24 -61 59 -119 106 -176c79 51 147 104 204 159zM172 357c79 -45 141 -88 185 -131l-21 -22
c-45 45 -106 90 -184 136z" /><glyph glyph-name="uni5F97" unicode="&#x5F97;" d="M844 768h-401v-112h401v112zM844 627h-401v-114h401v114zM873 484h-459v313h459v-313zM53 611c77 51 171 140 216 215l30 -9c-57 -88 -133 -164 -226 -227c-4 7 -13 15 -20 21zM307 597c-23 -43 -50 -83 -79 -121v-546h-29v510c-46 -55 -94 -103 -145 -143
c-5 7 -13 14 -24 22c103 76 186 171 249 286zM450 180c60 -54 104 -104 133 -149l-24 -19c-31 49 -75 100 -132 153zM950 218h-162v-243c0 -23 -10 -37 -29 -42c-15 -4 -65 -6 -149 -6c-2 10 -9 21 -13 29c77 -2 124 -1 141 0c14 1 21 7 21 19v243h-439v29h439v115h-419v29
h596v-29h-148v-115h162v-29z" /><glyph glyph-name="uni5FAE" unicode="&#x5FAE;" d="M605 526h-297v225h29v-196h111v275h29v-275h99v196h29v-225zM611 401h-332v29h332v-29zM38 623c61 52 136 137 174 207l29 -10c-48 -82 -109 -155 -183 -219zM267 631c-23 -47 -49 -90 -76 -130v-569h-29v525c-37 -52 -75 -98 -116 -139c-7 6 -17 18 -24 22
c87 83 159 183 216 300zM248 -50c78 73 90 205 83 361h241v-201l86 61c2 -8 10 -17 14 -24c-46 -36 -102 -72 -138 -110c-4 11 -9 21 -16 30c17 10 25 29 25 56v159h-183c7 -154 -13 -280 -91 -354c-5 10 -12 17 -21 22zM718 586c-3 -12 -7 -38 -11 -52
c16 -125 42 -242 79 -339c52 111 81 238 100 391h-168zM621 375c57 110 86 291 101 455l30 -4c-7 -69 -16 -149 -28 -211h227v-29h-36c-21 -170 -55 -307 -116 -426c43 -99 94 -167 153 -204c-7 -7 -15 -15 -22 -24c-59 39 -108 105 -147 197c-47 -80 -110 -147 -188 -201
c-5 8 -13 16 -22 24c81 52 147 122 196 210c-35 89 -61 193 -78 310c-11 -39 -25 -77 -43 -114c-6 6 -15 12 -27 17z" /><glyph glyph-name="uni5FE0" unicode="&#x5FE0;" d="M483 448v225h-311v-225h311zM512 673v-225h316v225h-316zM483 419h-340v283h340v127h29v-127h345v-283h-345v-127h-29v127zM420 292c87 -49 154 -98 201 -145l-22 -21c-51 52 -118 101 -201 147zM55 -4c58 53 108 149 139 237l26 -10c-33 -89 -83 -186 -140 -242zM336 8
c4 -38 27 -34 76 -34h244c78 7 57 42 69 138c7 -5 16 -10 29 -14c-12 -110 0 -153 -97 -153h-242c-74 3 -108 0 -108 63v237h29v-237zM784 231c51 -59 118 -157 151 -225l-27 -13c-32 67 -82 143 -150 226z" /><glyph glyph-name="uni5FEB" unicode="&#x5FEB;" d="M40 389c26 60 48 168 55 254l27 -5c-6 -85 -27 -197 -53 -257zM189 831h29v-900h-29v900zM326 485c-16 55 -42 114 -77 177l25 12c38 -68 64 -126 77 -174zM628 633c-1 -93 3 -196 -8 -276h208v276h-200zM591 357c12 81 7 184 8 276h-218v29h218v169h29v-169h229v-305
h110v-29h-323c52 -168 165 -319 319 -375c-9 -7 -17 -16 -23 -27c-156 65 -272 223 -324 402c-32 -202 -145 -319 -298 -402c-3 6 -10 14 -20 24c149 78 258 186 289 378h-268v29h272z" /><glyph glyph-name="uni6025" unicode="&#x6025;" d="M296 721c-31 -45 -67 -88 -106 -127h352c29 34 57 76 84 127h-330zM57 522c108 71 214 190 271 309l32 -5c-13 -25 -28 -51 -44 -76c110 1 226 -3 333 2l20 -14c-23 -47 -60 -102 -92 -144h231v-326h-652v29h623v121h-590v29h590v118h-599v20c-27 -26 -60 -53 -100 -82
c-5 8 -13 14 -23 19zM442 239c72 -66 125 -126 159 -181l-25 -17c-37 61 -90 122 -158 184zM54 -20c38 42 82 126 109 188l24 -11c-31 -62 -71 -145 -108 -189zM301 5c6 -37 30 -31 83 -31h273c78 5 62 33 73 124c7 -5 16 -9 29 -13c-11 -105 -4 -140 -101 -140h-270
c-79 4 -116 -4 -116 61v173h29v-174zM807 195c57 -71 100 -138 127 -201l-26 -13c-30 67 -72 136 -126 205z" /><glyph glyph-name="uni606D" unicode="&#x606D;" d="M141 63c55 47 105 133 137 212l26 -11c-34 -80 -82 -167 -137 -217zM424 360h29v-379c0 -23 -9 -37 -28 -42c-15 -4 -60 -6 -137 -6c-1 10 -9 22 -13 30c65 -2 109 -2 130 -1c13 1 19 7 19 18v380zM563 273c41 -72 67 -143 79 -212l-28 -8c-11 67 -36 138 -77 212z
M690 297c77 -83 131 -163 164 -239l-25 -14c-35 79 -90 160 -163 242zM351 493h296v170h-296v-170zM944 216c-105 49 -238 157 -301 248h-293c-64 -102 -174 -194 -288 -255c-6 7 -18 17 -25 21c110 54 215 139 279 234h-256v29h262v170h-194v29h194v141h29v-141h296v141h29
v-141h197v-29h-197v-170h267v-29h-266c75 -99 171 -174 288 -224c-9 -7 -16 -15 -21 -24z" /><glyph glyph-name="uni606F" unicode="&#x606F;" d="M61 -13c38 46 80 132 109 197l23 -11c-29 -66 -70 -151 -107 -199zM766 704h-531v-114h531v114zM766 561h-531v-115h531v115zM766 417h-531v-116h531v116zM795 272h-589v461h236c23 39 39 74 50 107l29 -12c-13 -29 -30 -61 -49 -95h323v-461zM447 257
c66 -54 116 -106 150 -156l-24 -17c-36 53 -86 106 -149 159zM301 9c6 -37 32 -32 83 -32h273c77 6 63 33 72 124c9 -6 19 -10 30 -12c-11 -105 -4 -141 -101 -141h-270c-79 4 -116 -3 -116 61v188h29v-188zM810 197c55 -63 96 -126 121 -187l-28 -12
c-23 59 -63 121 -119 188z" /><glyph glyph-name="uni60A8" unicode="&#x60A8;" d="M451 694c-35 -58 -74 -109 -118 -152c-7 7 -16 13 -25 18c78 70 137 159 176 268l29 -7c-12 -31 -27 -63 -45 -98c147 1 300 -3 444 2l20 -9c-25 -44 -60 -115 -85 -151l-27 6c22 30 49 85 69 123h-438zM777 563c61 -71 106 -142 133 -211l-27 -14
c-29 70 -72 141 -130 214zM573 83c-33 55 -86 116 -157 183l24 14c69 -62 122 -122 159 -180zM514 554c-33 -88 -77 -160 -133 -217c-8 6 -16 11 -25 16c55 53 97 122 128 207zM664 321c0 -20 -8 -33 -24 -38c-13 -4 -53 -6 -121 -6c-2 9 -6 19 -11 28c60 -1 97 -1 111 0
c11 1 16 6 16 15v328h29v-327zM62 -18c39 52 80 143 107 215l27 -12c-30 -67 -71 -166 -106 -217zM321 822c-28 -53 -61 -105 -98 -155v-394h-29v356c-39 -49 -80 -92 -123 -129c-7 5 -20 15 -26 19c101 82 184 186 247 312zM301 12c6 -40 32 -34 88 -34h290
c80 6 65 33 76 125c8 -6 18 -10 29 -13c-11 -106 -5 -141 -104 -141h-286c-84 4 -122 -5 -122 63v197h29v-197zM816 209c56 -80 94 -153 114 -220l-29 -12c-19 68 -57 142 -112 223z" /><glyph glyph-name="uni6210" unicode="&#x6210;" d="M873 668c-51 43 -116 85 -197 124l17 20c83 -41 149 -81 197 -121zM48 -54c117 147 101 428 100 694h432c-3 55 -6 117 -7 188h30c0 -65 2 -128 6 -188h333v-29h-331c12 -169 36 -308 71 -417c69 89 123 194 162 313l30 -8c-43 -129 -103 -241 -182 -338
c48 -129 107 -194 176 -194c29 0 47 65 54 194c8 -7 17 -11 27 -14c-4 -81 -11 -135 -22 -163c-11 -31 -32 -47 -61 -47c-79 0 -144 66 -195 199c-67 -78 -150 -145 -247 -200c-7 8 -14 16 -23 23c102 53 188 123 259 209c-39 113 -65 261 -78 443h-405v-155h265
c-2 -118 -6 -227 -11 -271c-9 -80 -5 -105 -71 -110c-32 -3 -73 0 -124 4c-1 12 -5 22 -10 29c38 -3 84 -5 127 -5c53 0 40 24 50 90c7 46 7 124 10 234h-236c4 -206 -20 -383 -105 -500c-7 8 -15 14 -24 19z" /><glyph glyph-name="uni6216" unicode="&#x6216;" d="M876 684c-47 43 -111 83 -192 118l16 20c80 -34 144 -72 193 -114zM514 107l-433 -95l-6 30l437 94zM438 484h-260v-234h260v234zM467 513v-292h-318v292h318zM654 180c-38 127 -61 283 -71 448h-502v29h501c-3 55 -5 112 -6 172h31c0 -53 2 -111 5 -172h313v-29h-313
c10 -169 31 -309 64 -421c72 90 129 199 170 326l29 -8c-47 -139 -109 -256 -188 -351c47 -143 108 -215 183 -215c30 0 48 65 55 194c7 -6 16 -10 27 -13c-4 -81 -11 -136 -22 -164c-12 -31 -33 -47 -62 -47c-85 0 -153 73 -204 219c-74 -85 -164 -156 -269 -211l-22 24
c109 55 203 128 281 219z" /><glyph glyph-name="uni6237" unicode="&#x6237;" d="M523 672c-14 47 -35 99 -62 155l27 8c22 -44 51 -108 64 -153zM795 397v245h-572c-1 -81 1 -165 -1 -245h573zM42 -57c106 120 153 291 152 519v209h630v-381h-29v78h-575c-11 -188 -61 -336 -154 -443c-7 8 -15 14 -24 18z" /><glyph glyph-name="uni6240" unicode="&#x6240;" d="M140 551v-200h253v200h-253zM476 784c-74 -43 -221 -70 -336 -85v-119h282v-258h-283c-4 -153 -23 -287 -74 -391c-7 9 -15 16 -24 19c95 184 65 498 70 773c115 14 272 42 343 84zM923 795c-82 -43 -235 -77 -357 -96v-211h380v-29h-142v-530h-29v530h-209
c6 -222 -16 -415 -117 -531c-5 7 -12 14 -23 20c82 96 111 237 111 418v355c120 20 282 54 362 97z" /><glyph glyph-name="uni624B" unicode="&#x624B;" d="M836 803c-88 -30 -202 -49 -321 -63v-196h375v-29h-375v-207h429v-29h-429v-284c0 -30 -14 -48 -41 -54c-19 -5 -84 -6 -195 -5c-4 11 -8 21 -13 29c42 -1 83 -1 122 -1c53 0 98 -13 98 30v285h-428v29h428v207h-364v29h364v192c-109 -11 -234 -21 -349 -27
c-2 9 -4 19 -8 26c240 16 496 31 683 91z" /><glyph glyph-name="uni6253" unicode="&#x6253;" d="M421 369c-55 -18 -113 -38 -169 -56v-323c0 -23 -9 -37 -27 -42c-13 -4 -54 -6 -121 -6c-2 8 -6 17 -12 28c61 -1 99 0 112 0s20 7 20 20v313c-55 -17 -111 -36 -166 -53l-12 30c60 17 119 35 178 54v253h-171v29h171v213h28v-213h164v-29h-164v-243l165 52zM757 -7
c1 -75 -79 -53 -154 -59h-65c-4 13 -9 24 -14 32c94 -2 153 -2 178 0c17 1 26 9 26 26v716h-317v29h543v-29h-197v-715z" /><glyph glyph-name="uni6269" unicode="&#x6269;" d="M687 686c-13 33 -35 73 -66 120l24 12c31 -44 54 -83 69 -118zM221 301v-325c0 -22 -9 -37 -27 -42c-15 -5 -53 -6 -114 -5c-2 8 -7 19 -11 28c57 -1 91 0 104 0s19 6 19 19v315l-129 -47l-13 30l142 49v264h-129v29h129v214h29v-214h120v-29h-120v-253l117 41l5 -29z
M307 -56c90 114 126 276 126 482v247h515v-29h-487c1 -219 9 -446 -62 -599c-20 -44 -43 -83 -70 -118c-6 9 -13 14 -22 17z" /><glyph glyph-name="uni6280" unicode="&#x6280;" d="M46 280c51 15 95 28 155 47v260h-143v29h143v214h29v-214h124v-29h-124v-250l130 41l4 -28l-134 -45v-327c0 -23 -9 -39 -28 -44c-16 -5 -56 -6 -121 -5c-3 9 -7 18 -12 28c61 -1 99 0 112 0s20 7 20 20v319l-142 -47zM463 418c39 -113 99 -208 178 -286
c87 75 156 172 199 286h-377zM879 438c-44 -133 -120 -241 -218 -327c81 -75 177 -128 286 -157c-7 -7 -15 -15 -22 -26c-109 33 -204 88 -286 164c-86 -70 -193 -127 -309 -164l-17 27c113 31 214 84 305 158c-81 82 -143 184 -186 305h-39v29h234v182h-257v29h257v172h29
v-172h257v-29h-257v-182c68 1 141 -3 205 2z" /><glyph glyph-name="uni62D3" unicode="&#x62D3;" d="M380 358c-50 -18 -95 -34 -136 -47v-325c0 -23 -9 -38 -28 -43c-13 -4 -53 -6 -121 -6c-2 9 -6 18 -12 29c35 -1 75 -1 112 -1c13 1 20 7 20 20v317c-65 -22 -119 -39 -161 -52l-12 30l173 53v254h-162v29h162v213h29v-213h136v-29h-136v-244l132 42zM515 389v-371h353
v371h-353zM629 726c-30 -111 -72 -217 -121 -308h389v-485h-29v56h-353v-60h-29v448c-44 -75 -95 -139 -152 -192c-5 7 -14 15 -20 21c136 128 226 311 283 520h-229v29h579v-29h-318z" /><glyph glyph-name="uni62E5" unicode="&#x62E5;" d="M219 306v-330c0 -22 -9 -37 -27 -42c-15 -5 -53 -6 -114 -5c-2 8 -7 19 -11 28c57 -1 91 0 104 0s19 6 19 19v319l-142 -51l-13 30l155 54v259h-142v29h142v214h29v-214h129v-29h-129v-248l121 43l5 -30zM886 289v203h-214v-203h214zM643 289v203h-210
c0 -71 1 -133 -3 -203h213zM433 729v-208h210v208h-210zM886 729h-214v-208h214v208zM288 -48c85 103 116 252 116 443v363h512v-774c0 -25 -10 -41 -30 -47c-15 -4 -60 -6 -136 -6c-4 11 -9 20 -13 31c69 -1 111 -1 128 0c14 1 21 8 21 21v277h-214v-318h-29v318h-216
c-11 -138 -50 -248 -117 -329c-5 7 -13 14 -22 21z" /><glyph glyph-name="uni62EC" unicode="&#x62EC;" d="M367 353c-48 -17 -96 -33 -145 -48v-323c0 -23 -9 -38 -28 -44c-13 -4 -53 -5 -121 -5c-3 10 -7 19 -12 28c61 -1 99 -1 112 0s20 7 20 20v314c-46 -15 -92 -30 -139 -45l-13 30l152 46v261h-140v29h140v214h29v-214h132v-29h-132v-251l140 44zM856 261h-407v-258h407
v258zM396 724c166 23 343 49 478 97l26 -24c-60 -22 -138 -41 -235 -58v-215h285v-29h-285v-205h220v-357h-29v41h-407v-45h-29v361h216v205h-251v29h251v209c-81 -14 -157 -25 -229 -34c-2 8 -6 16 -11 25z" /><glyph glyph-name="uni6301" unicode="&#x6301;" d="M221 616h127v-29h-127v-247l119 42l5 -30l-124 -46v-330c0 -22 -9 -37 -27 -42c-15 -5 -53 -6 -114 -5c-2 8 -7 19 -11 28c57 -1 91 0 104 0s19 6 19 19v321l-145 -53l-13 30l158 55v258h-145v29h145v214h29v-214zM491 236c54 -63 93 -122 118 -176l-23 -18
c-23 53 -61 113 -116 179zM711 -38c37 0 68 -10 68 22v303h-403v29h403v145h-417v29h282v166h-222v29h222v140h29v-140h225v-29h-225v-166h277v-29h-143v-145h138v-29h-138v-302c0 -27 -9 -43 -28 -48c-15 -4 -63 -6 -143 -6c-2 9 -6 19 -12 32c30 -1 59 -1 87 -1z" /><glyph glyph-name="uni636E" unicode="&#x636E;" d="M221 306v-330c0 -22 -9 -37 -27 -42c-15 -5 -53 -6 -114 -5c-2 8 -7 19 -11 28c57 -1 91 0 104 0s19 6 19 19v319l-142 -51l-13 30l155 54v259h-145v29h145v214h29v-214h127v-29h-127v-248l122 43l5 -30zM681 423v133h-243c0 -44 1 -91 -1 -133h244zM438 754v-169h445
v169h-445zM885 213h-373v-204h373v204zM315 -68c-5 5 -18 14 -25 16c136 181 121 514 119 835h503v-227h-202v-133h243v-29h-243v-152h204v-309h-29v47h-373v-53h-29v315h198v152h-245c-7 -188 -42 -347 -121 -462z" /><glyph glyph-name="uni6377" unicode="&#x6377;" d="M222 329v-352c0 -23 -9 -37 -28 -42c-15 -4 -52 -6 -113 -5l-12 28c57 -1 92 0 105 0c12 0 18 6 18 19v341l-145 -52l-13 30l158 55v236h-145v30h145v213h30v-213h126v-30h-126v-225l118 42l5 -30zM658 325h194v116h-194v-116zM658 471h194v104h-194v-104zM762 -64
c-197 1 -272 51 -334 190c-29 -82 -70 -148 -123 -199c-6 6 -14 12 -25 19c81 70 132 180 154 329l30 -4c-6 -35 -13 -68 -21 -99c33 -103 83 -164 185 -192v315h-221v30h221v116h-277v30h277v104h-221v30h221v93h-267v29h267v103h30v-103h277v-29h-277v-93h223v-134h80v-30
h-80v-146h-223v-116h235v-30h-235v-176c86 -12 204 -5 302 -7c-7 -10 -12 -20 -13 -30h-185z" /><glyph glyph-name="uni63A5" unicode="&#x63A5;" d="M915 680h-531v29h251c-14 33 -42 76 -62 108l26 7c31 -41 54 -80 69 -115h247v-29zM551 495c-21 45 -50 92 -88 141l21 12c41 -49 71 -95 89 -137zM945 443h-601v29h341c41 53 76 112 105 177l32 -8c-33 -61 -68 -122 -102 -169h225v-29zM210 302v-327
c-9 -60 -42 -42 -127 -46c-3 10 -7 19 -12 28c51 -1 82 0 93 0s17 6 17 17v318l-133 -48l-13 30l146 50v263h-134v29h134v214h29v-214h120v-29h-120v-252l105 38l6 -30zM458 159c70 -20 139 -44 208 -73c60 50 101 116 123 197h-249c-25 -42 -51 -80 -82 -124zM527 312
c23 39 43 78 60 117l28 -6c-17 -36 -36 -73 -57 -111h397v-29h-133c-22 -87 -63 -158 -124 -211c94 -40 169 -81 226 -122l-26 -24c-53 40 -129 81 -227 124c-79 -58 -190 -97 -334 -118c-5 11 -11 21 -17 28c139 19 245 54 318 104c-77 32 -151 59 -224 80
c34 43 66 90 95 139h-177v29h195z" /><glyph glyph-name="uni63D0" unicode="&#x63D0;" d="M836 766h-397v-109h397v109zM836 628h-397v-111h397v111zM864 488h-453v307h453v-307zM217 306v-330c0 -22 -9 -37 -27 -42c-15 -5 -53 -6 -114 -5c-2 8 -7 19 -11 28c57 -1 91 0 104 0s19 6 19 19v319c-43 -15 -100 -37 -140 -51l-13 30l153 53v260h-140v29h140v213h29
v-213h122v-29h-122v-249l113 40l5 -29zM772 -53c-190 -2 -278 54 -333 195c-28 -90 -73 -162 -136 -215c-5 7 -13 13 -24 20c90 69 144 186 161 349l30 -3c-5 -45 -12 -83 -20 -112c31 -98 79 -161 174 -189v369h-255v29h555v-29h-273v-148h228v-29h-228v-199
c87 -16 206 -8 308 -10c-7 -11 -11 -21 -12 -28h-175z" /><glyph glyph-name="uni63D2" unicode="&#x63D2;" d="M102 -71c-3 8 -9 22 -13 28c24 -1 53 0 79 0c10 0 15 5 15 15v317l-123 -41l-10 29c44 15 88 29 133 43v267h-119v29h119v214h29v-214h109v-29h-109v-257l117 39l4 -29c-43 -14 -78 -27 -121 -40v-327c-8 -55 -31 -40 -110 -44zM875 794c-57 -20 -129 -32 -204 -43v-160
h271v-29h-271v-546h205v184h-153v29h153v164h-157v29h186v-494h-29v59h-447v-58h-29v475c49 12 113 32 151 52l23 -23c-39 -21 -93 -37 -145 -50v-155h157v-29h-157v-183h213v546h-273v29h273v156c-79 -8 -153 -14 -224 -17c-2 10 -5 18 -9 26c158 9 324 23 446 63z" /><glyph glyph-name="uni652F" unicode="&#x652F;" d="M251 405c56 -114 140 -208 251 -283c116 70 209 163 269 283h-520zM816 422c-62 -135 -161 -238 -286 -317c117 -73 261 -122 430 -147c-6 -6 -12 -14 -18 -25c-171 27 -317 79 -439 155c-122 -72 -271 -124 -434 -158c-3 7 -9 16 -18 27c160 32 305 81 425 150
c-114 79 -199 178 -256 298h-93v29h358v193h-400v29h400v173h29v-173h401v-29h-401v-193c94 1 193 -3 283 2z" /><glyph glyph-name="uni6536" unicode="&#x6536;" d="M74 153c20 11 34 36 34 64v498h29v-531l202 73v558h29v-886h-29v299c-143 -57 -172 -61 -248 -103c-5 11 -11 20 -17 28zM548 598c35 -149 83 -277 145 -384c57 98 100 226 128 384h-273zM401 376c89 110 145 275 178 454l29 -5c-15 -75 -32 -141 -50 -198h384v-29h-91
c-29 -171 -76 -308 -141 -412c69 -107 149 -184 241 -229c-10 -8 -17 -16 -22 -23c-91 48 -169 124 -236 227c-63 -95 -150 -171 -259 -230c-5 8 -12 16 -21 25c111 54 199 131 264 231c-61 102 -110 224 -145 366c-31 -80 -67 -146 -107 -198c-5 6 -18 17 -24 21z" /><glyph glyph-name="uni6548" unicode="&#x6548;" d="M301 684c-21 43 -52 87 -91 130l20 15c41 -42 73 -85 95 -128zM502 648h-433v29h433v-29zM456 430c-23 48 -58 99 -105 153l25 13c48 -54 83 -104 105 -150zM216 591c-40 -87 -87 -159 -140 -216c-5 5 -18 12 -25 16c55 57 101 126 137 207zM325 232
c47 -57 92 -116 124 -176l-25 -19c-23 45 -62 101 -116 168c-61 -100 -139 -182 -232 -246c-7 8 -15 15 -24 21c95 61 174 144 237 249c-43 51 -89 100 -137 146l24 16c46 -44 89 -89 129 -136c31 59 56 117 74 174l29 -6c-23 -68 -50 -132 -83 -191zM634 611
c-8 -26 -17 -51 -26 -75c25 -131 63 -244 113 -337c61 105 104 242 131 412h-218zM493 373c80 115 134 283 166 458l29 -5c-12 -64 -27 -126 -45 -186h305v-29h-65c-28 -179 -71 -319 -146 -441c59 -101 131 -172 218 -214c-9 -8 -17 -16 -23 -24c-83 43 -154 114 -212 212
c-61 -89 -144 -161 -248 -217c-7 11 -14 20 -21 25c107 53 191 127 252 220c-48 89 -86 195 -113 318c-20 -48 -43 -93 -70 -134c-7 6 -16 12 -27 17z" /><glyph glyph-name="uni6559" unicode="&#x6559;" d="M541 201c-76 -9 -162 -20 -239 -30v-198c0 -21 -8 -34 -25 -39c-13 -4 -55 -6 -125 -6c-2 9 -6 19 -12 29c42 -1 77 -1 116 0c11 1 17 6 17 16v194l-217 -28l-5 30l222 27c-1 30 1 63 -1 91c51 27 101 63 148 109h-153c-57 -56 -121 -106 -193 -150c-4 6 -17 18 -25 23
c59 32 117 74 175 127h-97v29h129c29 29 58 62 86 97h-293v29h196v131h-151v29h151v120h29v-120h151v-29h-151v-131h90c55 75 102 161 140 257l29 -9c-35 -89 -79 -172 -132 -248h129v-29h-151c-25 -34 -52 -66 -82 -97c52 1 109 -3 157 2l21 -14
c-45 -53 -103 -99 -173 -138v-76l239 32v-30zM620 611c0 -3 -1 -6 -2 -10c24 -143 59 -275 111 -386c62 112 97 239 123 396h-232zM482 392c78 108 133 271 164 438l30 -5c-11 -59 -27 -121 -46 -185h322v-29h-69c-28 -171 -67 -308 -138 -427c57 -110 128 -187 212 -232
c-11 -8 -19 -16 -23 -24c-81 48 -150 124 -207 227c-62 -95 -147 -171 -255 -228c-5 9 -12 18 -21 25c110 55 197 132 261 233c-49 103 -87 224 -113 365c-27 -68 -56 -127 -89 -176c-8 7 -17 13 -28 18z" /><glyph glyph-name="uni6570" unicode="&#x6570;" d="M488 789c-31 -57 -61 -102 -89 -137l-21 12c31 43 59 90 84 140zM178 653c-13 42 -36 87 -69 135l23 9c36 -49 59 -93 70 -134zM281 571c-56 -83 -124 -146 -205 -189c-4 8 -13 19 -19 26c89 41 160 107 214 198h-213v29h223v196h29v-196h220v-29h-220v-6
c29 -17 166 -110 190 -129l-19 -25c-47 39 -104 81 -171 126v-165h-29v164zM182 172c48 -18 97 -40 146 -64c53 49 91 106 114 173h-200c-23 -45 -43 -82 -60 -109zM431 13c-33 23 -66 43 -100 60c-69 -58 -158 -102 -258 -129c-4 11 -9 19 -16 24c96 23 181 65 247 119
c-50 24 -111 54 -163 72c26 39 49 79 70 122h-131v29h146c9 22 23 50 30 71l28 -5l-28 -66c68 1 142 -3 207 2l17 -9c-25 -81 -67 -150 -127 -208c39 -21 71 -38 101 -59zM625 590c22 -133 56 -254 103 -358c49 97 85 219 106 366h-207zM497 374c75 108 121 270 148 441
l30 -5c-12 -69 -25 -130 -40 -183h302v-29h-72c-25 -157 -61 -285 -121 -397c58 -113 130 -193 217 -239c-9 -7 -16 -15 -22 -24c-84 48 -154 126 -211 235c-61 -102 -145 -183 -253 -244c-6 9 -13 17 -21 24c112 58 198 141 259 249c-45 97 -80 209 -105 336
c-24 -68 -50 -128 -84 -181c-8 6 -17 12 -27 17z" /><glyph glyph-name="uni6574" unicode="&#x6574;" d="M627 679l-3 -7c25 -74 63 -141 115 -202c54 59 93 128 116 209h-228zM886 679c-25 -92 -68 -168 -129 -229c53 -56 117 -99 192 -129c-7 -6 -13 -14 -19 -24c-73 30 -137 74 -192 133c-57 -52 -129 -95 -216 -130c-4 7 -15 20 -21 24c89 32 161 74 218 127
c-46 53 -85 118 -113 190c-21 -36 -45 -69 -74 -100c-7 7 -15 13 -26 18c67 65 117 156 148 272l30 -6c-13 -43 -27 -82 -43 -117h307v-29h-62zM127 526h150v98h-150v-98zM306 624v-98h140v98h-140zM277 465c-57 -70 -127 -123 -209 -159c-7 9 -14 17 -21 22
c93 36 167 92 224 169h-173v156h179v69h-215v29h215v79h29v-79h206v-29h-206v-69h169v-156h-169v-195h-29v163zM326 476c66 -29 117 -60 153 -93l-17 -23c-37 33 -88 65 -153 97zM951 -12v-29h-899v29h181v182h29v-182h223v251h-360v29h758v-29h-369v-107h318v-29h-318v-115
h437z" /><glyph glyph-name="uni65B9" unicode="&#x65B9;" d="M535 663c-15 46 -46 108 -70 154l26 12c35 -60 59 -111 73 -153zM407 615c-4 -75 -10 -135 -18 -199h426c-11 -140 -21 -272 -35 -334c-22 -96 -22 -136 -110 -143c-42 -3 -97 1 -164 7c-1 12 -5 22 -10 29c52 -6 111 -8 169 -8c75 0 66 39 86 123c15 62 22 162 32 297
h-398c-37 -219 -133 -376 -305 -459c-4 7 -16 16 -22 22c226 102 310 343 318 665h-292v29h838v-29h-515z" /><glyph glyph-name="uni65BD" unicode="&#x65BD;" d="M276 663c-13 47 -36 96 -67 149l23 12c31 -49 54 -98 69 -147zM201 627c-1 -55 -2 -119 -5 -169h195c-4 -118 -4 -272 -16 -379c-12 -102 -4 -138 -81 -147c-30 -3 -67 0 -108 4c-1 12 -5 22 -10 29c35 -3 74 -4 113 -4c59 0 43 40 56 129c9 67 11 180 15 339h-166
c-8 -196 -41 -390 -124 -501c-7 6 -16 12 -27 17c111 151 123 418 128 682h-121v29h389v-29h-238zM415 490c68 84 122 211 151 341l29 -6c-14 -55 -28 -101 -45 -148h402v-29h-413c-29 -71 -62 -130 -98 -177c-6 7 -18 16 -26 19zM556 10c2 -45 20 -45 71 -45h237
c66 8 51 41 60 126c9 -6 18 -11 29 -14c-9 -100 -1 -141 -90 -141h-233c-76 2 -103 6 -103 75v302l-81 -38l-13 24l94 44v169h29v-155l135 65v175h29v-161l151 72l12 12c6 -6 24 -6 18 -18c-1 -95 -3 -246 -9 -320c-4 -50 -65 -41 -116 -41c-1 9 -4 18 -10 29
c32 3 96 -16 99 23c6 68 6 187 7 285l-152 -73v-320h-29v307l-135 -65v-317z" /><glyph glyph-name="uni65E0" unicode="&#x65E0;" d="M500 729c-3 -98 -9 -195 -23 -277h465v-29h-394v-400c0 -29 24 -43 73 -43h227c29 0 47 10 56 31c8 20 13 67 16 141c9 -7 19 -12 29 -14c-3 -77 -11 -127 -22 -149c-13 -25 -39 -38 -79 -38h-225c-76 2 -104 6 -104 73v399h-48c-49 -251 -183 -413 -400 -496
c-4 7 -14 16 -20 23c211 79 340 236 392 473h-384v29h389c15 81 22 181 24 277h-349v29h760v-29h-383z" /><glyph glyph-name="uni65F6" unicode="&#x65F6;" d="M126 711v-263h223v263h-223zM349 145v274h-223v-274h223zM378 116h-252v-81h-29v705h281v-624zM952 585h-141v-589c0 -31 -13 -50 -40 -56c-19 -5 -81 -6 -185 -5c-4 10 -9 22 -14 31c97 -2 157 -2 182 0c19 1 28 10 28 29v590h-351v29h351v211h29v-211h141v-29zM652 217
c-40 76 -116 195 -163 260l24 11c51 -74 125 -182 165 -255z" /><glyph glyph-name="uni6613" unicode="&#x6613;" d="M225 449h568v138h-568v-138zM225 616h568v136h-568v-136zM628 -39c38 -4 83 -6 127 -6c59 0 51 30 67 96c12 49 17 126 25 229h-158c-54 -148 -133 -266 -237 -355c-6 6 -20 16 -26 20c102 83 179 194 231 335h-181c-71 -129 -185 -249 -305 -333c-7 8 -15 15 -26 22
c124 78 223 182 297 311h-191c-52 -55 -109 -102 -170 -141c-7 7 -18 17 -26 20c104 63 209 162 274 261h-133v361h626v-361h-458c-25 -39 -53 -76 -85 -111h600c-9 -111 -18 -219 -29 -267c-17 -76 -19 -109 -89 -114c-33 -2 -74 0 -123 4c-1 11 -5 21 -10 29z" /><glyph glyph-name="uni662F" unicode="&#x662F;" d="M788 753h-583v-113h583v113zM788 611h-583v-114h583v114zM817 468h-641v314h641v-314zM284 299c-8 -41 -16 -73 -27 -106c44 -108 111 -169 234 -195v349h-432v29h882v-29h-421v-148h355v-29h-355v-178c124 -17 291 -7 432 -10c-7 -10 -12 -20 -13 -29h-263
c-228 -3 -360 45 -433 202c-39 -97 -96 -172 -171 -227c-5 7 -16 16 -23 22c107 73 175 190 205 353z" /><glyph glyph-name="uni663E" unicode="&#x663E;" d="M675 98c50 54 125 151 162 212l27 -14c-52 -79 -107 -149 -164 -212zM796 750h-585v-139h585v139zM796 582h-585v-140h585v140zM825 413h-643v366h643v-366zM275 80c-35 69 -78 140 -131 212l26 11c60 -81 104 -151 131 -210zM950 6v-29h-899v29h327v359h29v-359h179v358
h29v-358h335z" /><glyph glyph-name="uni667A" unicode="&#x667A;" d="M293 518c29 -16 167 -104 191 -122l-18 -28c-37 30 -132 94 -182 128c-45 -86 -116 -137 -213 -180c-5 9 -12 17 -20 24c114 48 191 102 223 217h-216v29h221c5 41 2 80 3 124h-120c-22 -41 -45 -76 -70 -103l-26 17c50 54 89 123 117 206l29 -7c-9 -25 -21 -53 -34 -84
h299v-29h-166c-1 -43 2 -83 -3 -124h196v-29h-201c-1 -13 -6 -27 -10 -39zM243 301v-134h518v134h-518zM761 -1v139h-518v-139h518zM214 330h576v-397h-29v37h-518v-41h-29v401zM846 711h-263v-257h263v257zM875 740v-315h-321v315h321z" /><glyph glyph-name="uni66F4" unicode="&#x66F4;" d="M486 297c5 40 2 93 3 138h-294v-138h291zM195 464h294v137h-294v-137zM518 601v-137h319v137h-319zM837 435h-319c0 -48 0 -92 -3 -138h322v138zM941 -75c-218 13 -424 42 -560 127c-68 -51 -171 -93 -309 -124c-5 9 -11 18 -17 26c120 27 220 60 301 115
c-58 43 -105 99 -141 168l23 10c34 -65 81 -119 140 -160c56 45 90 98 104 181h-317v362h324v110h-420v29h860v-29h-411v-110h349v-362h-356c-14 -88 -50 -148 -106 -198c132 -80 338 -106 550 -116c-7 -8 -12 -18 -14 -29z" /><glyph glyph-name="uni6700" unicode="&#x6700;" d="M794 769h-579v-98h579v98zM794 642h-579v-101h579v101zM823 512h-637v286h637v-286zM188 39c78 10 155 20 232 30v85h-232v-115zM188 408v-96h232v96h-232zM188 183h232v100h-232v-100zM449 47v-118h-29v114l-363 -51l-6 31c31 4 81 8 108 12v373h-104v29h887v-29h-493
v-335l62 8v-25zM580 290c31 -78 75 -145 134 -201c61 53 114 122 145 201h-279zM898 311c-31 -94 -86 -174 -164 -241c65 -55 137 -94 218 -115c-7 -7 -14 -16 -19 -25c-85 26 -158 67 -219 122c-67 -53 -141 -93 -222 -120c-4 9 -10 18 -17 25c79 23 151 61 217 114
c-63 61 -109 134 -140 219h-57v29c128 1 261 -3 386 2z" /><glyph glyph-name="uni6709" unicode="&#x6709;" d="M303 480v-142h476v142h-476zM779 164v145h-476v-145h476zM808 -13c2 -83 -128 -43 -203 -53c-1 10 -9 22 -13 30c51 -2 116 -3 163 -1c16 1 24 9 24 24v148h-476v-206h-29v538c-59 -83 -126 -151 -202 -205c-3 6 -12 17 -17 23c127 89 231 225 300 377h-283v29h296
c21 51 38 97 49 138l28 -8c-16 -49 -32 -93 -47 -130h533v-29h-546c-23 -51 -51 -102 -83 -153h506v-522z" /><glyph glyph-name="uni670B" unicode="&#x670B;" d="M410 308v202h-239c0 -68 0 -136 -2 -202h241zM171 735v-196h239v196h-239zM44 -54c127 177 93 518 98 818h297v-762c0 -25 -9 -41 -28 -46c-18 -5 -61 -6 -129 -5c-4 10 -8 20 -13 30c65 -1 106 -1 121 0c13 1 20 7 20 20v278h-243c-10 -139 -40 -263 -99 -350
c-6 7 -14 13 -24 17zM858 308v202h-262c0 -70 1 -133 -3 -202h265zM596 735v-196h262v196h-262zM456 -54c141 167 107 512 111 818h320v-772c0 -27 -11 -44 -32 -49c-15 -4 -65 -6 -150 -6c-2 9 -6 19 -13 31c31 -1 62 -1 91 -1c42 0 75 -10 75 24v288h-267
c-11 -143 -47 -266 -112 -352c-6 7 -14 14 -23 19z" /><glyph glyph-name="uni670D" unicode="&#x670D;" d="M361 303v218h-208c0 -76 1 -141 -3 -218h211zM153 762v-212h208v212h-208zM390 -22c0 -23 -9 -39 -28 -44c-17 -5 -60 -6 -128 -5c-3 10 -7 19 -11 28c63 -1 102 -1 117 0c14 1 21 8 21 21v296h-213c-9 -130 -32 -257 -78 -346c-8 8 -16 13 -25 16c105 201 74 544 79 847
h266v-813zM613 425c33 -111 80 -208 139 -291c65 84 112 181 139 291h-278zM576 -60c-4 7 -13 18 -19 22c62 32 121 82 177 149c-64 89 -114 194 -150 314h-45v-496h-29v857h388v-193c0 -21 -9 -34 -26 -39c-15 -4 -63 -6 -142 -6c-1 9 -9 20 -13 28c73 -1 118 -1 133 0
c13 1 19 6 19 17v164h-330v-303c122 1 250 -3 369 2l17 -8c-29 -131 -84 -248 -155 -338c57 -73 119 -127 186 -160c-9 -7 -16 -14 -23 -23c-66 37 -127 90 -182 161c-52 -61 -110 -111 -175 -148z" /><glyph glyph-name="uni672C" unicode="&#x672C;" d="M936 99c-167 87 -325 286 -399 474h-23v-409h261v-29h-261v-206h-29v206h-258v29h258v409h-24c-91 -214 -220 -372 -388 -475c-4 8 -11 16 -21 23c153 84 306 277 379 452h-360v29h414v226h29v-226h417v-29h-367c74 -181 229 -371 394 -451c-9 -7 -17 -15 -22 -23z" /><glyph glyph-name="uni672F" unicode="&#x672F;" d="M800 636c-47 47 -112 96 -193 149l21 19c81 -51 145 -100 193 -145zM527 540c87 -153 273 -360 417 -449c-6 -5 -14 -12 -23 -23c-149 103 -285 248 -406 437v-576h-30v566c-110 -196 -248 -341 -414 -435c-5 8 -13 16 -22 23c165 86 343 283 428 457h-406v29h414v260h30
v-260h404v-29h-392z" /><glyph glyph-name="uni673A" unicode="&#x673A;" d="M405 319c-27 48 -94 141 -131 194v-582h-29v593c-38 -127 -109 -286 -177 -374c-10 11 -18 19 -23 23c87 105 151 248 193 428h-179v29h186v201h29v-201h165v-29h-165v-42c44 -54 126 -169 156 -213zM804 42c-3 -78 5 -78 71 -75c32 1 36 13 40 49c4 33 4 85 4 156
c7 -7 16 -13 29 -17c-4 -75 9 -173 -27 -206c-34 -15 -115 -18 -138 10c-8 26 -8 45 -8 99v687h-238c-2 -253 16 -524 -76 -695c-24 -45 -51 -87 -85 -123c-5 8 -13 15 -22 21c110 112 154 284 154 508v318h296v-732z" /><glyph glyph-name="uni6742" unicode="&#x6742;" d="M87 15c77 47 159 121 204 195l30 -9c-48 -78 -131 -157 -210 -211c-6 8 -17 20 -24 25zM667 213c89 -70 157 -136 202 -198l-24 -19c-49 67 -116 134 -201 201zM412 -41c37 0 71 -9 71 20v319h-407v29h407v107h29v-107h403v-29h-403v-318c2 -73 -111 -40 -178 -48
c-1 5 -6 15 -13 28c32 -1 62 -1 91 -1zM947 564c-8 -93 5 -134 -66 -143c-75 7 -206 -26 -206 54v199h-263c-58 -155 -166 -235 -338 -283c-3 8 -9 16 -18 23c163 42 269 117 326 260h-268v29h279c11 37 21 79 28 127h29c-8 -49 -16 -87 -28 -127h282v-228
c0 -17 14 -25 42 -25h132c17 0 27 7 32 21c5 15 8 50 9 106c9 -7 18 -11 28 -13z" /><glyph glyph-name="uni675F" unicode="&#x675F;" d="M182 316h302v196h-302v-196zM513 512v-196h303v196h-303zM534 287c88 -119 268 -241 425 -291c-8 -7 -15 -15 -21 -25c-155 56 -334 178 -425 297v-339h-29v336c-87 -114 -264 -237 -413 -293c-6 10 -13 18 -21 25c149 52 329 176 415 290h-312v254h331v140h-405v29h405
v119h29v-119h409v-29h-409v-140h332v-254h-311z" /><glyph glyph-name="uni6761" unicode="&#x6761;" d="M122 -10c66 42 164 135 209 196l25 -14c-45 -63 -147 -158 -212 -203c-9 11 -17 18 -22 21zM514 245v-270c-10 -54 -33 -34 -116 -40c-2 7 -6 16 -12 26c45 -1 74 0 85 0c9 0 14 4 14 13v271h-334v29h334v132h29v-132h320v-29h-320zM654 189c89 -72 156 -138 201 -199
l-23 -19c-50 65 -117 132 -200 201zM323 691c42 -63 101 -117 177 -164c86 50 151 107 196 172h-365zM85 551c123 62 247 168 313 281l34 -6c-23 -36 -47 -68 -73 -98c121 1 248 -3 366 2l18 -14c-47 -77 -119 -146 -216 -205c117 -67 260 -112 429 -135
c-7 -7 -14 -16 -19 -27c-166 24 -321 74 -439 145c-121 -68 -276 -120 -439 -148c-2 9 -7 18 -15 27c154 24 311 76 427 138c-73 48 -129 101 -169 159c-57 -55 -122 -101 -194 -139c-9 10 -16 17 -23 20z" /><glyph glyph-name="uni677F" unicode="&#x677F;" d="M350 353c-30 55 -62 107 -95 159v-581h-29v588c-35 -125 -96 -275 -159 -361c-6 10 -13 18 -22 23c77 101 135 242 174 421h-150v29h157v200h29v-200h133v-29h-133v-46c33 -48 92 -136 117 -177zM552 486c35 -128 84 -237 149 -327c74 91 126 200 156 327h-305zM906 775
c-119 -49 -283 -66 -441 -80v-180c136 1 277 -3 409 2l18 -8c-31 -149 -90 -274 -172 -375c66 -85 144 -145 234 -179c-7 -5 -15 -14 -23 -26c-88 38 -165 99 -231 184c-67 -76 -153 -140 -251 -184c-5 9 -11 18 -20 25c96 39 181 99 254 182c-69 95 -121 211 -157 350h-61
c3 -231 -32 -423 -126 -557c-7 7 -16 13 -25 17c130 167 126 470 122 773c160 15 329 31 450 79z" /><glyph glyph-name="uni6784" unicode="&#x6784;" d="M255 541c24 -31 89 -132 119 -180l-22 -26c-24 45 -56 99 -97 163v-567h-29v589c-35 -125 -96 -276 -159 -363c-7 11 -15 19 -22 24c77 101 135 242 174 421h-159v29h166v200h29v-200h136v-29h-136v-61zM731 225c-164 -33 -204 -35 -293 -64c-1 11 -5 22 -10 32
c30 15 48 70 64 105c34 75 65 160 85 244l31 -8c-37 -127 -81 -237 -131 -330l246 45c-21 52 -43 102 -68 150l23 8c51 -99 85 -182 102 -251l-24 -10c-8 27 -16 53 -25 79zM374 470c72 89 125 223 156 361l30 -6c-13 -55 -30 -110 -50 -164h417c-6 -240 -17 -437 -26 -530
c-9 -95 -23 -153 -42 -176c-35 -40 -108 -25 -181 -22c-1 13 -4 23 -9 30c39 -3 83 -5 126 -5c17 -1 29 5 37 14c16 19 30 75 39 170c9 96 18 259 26 490h-399c-26 -67 -58 -126 -97 -179z" /><glyph glyph-name="uni679C" unicode="&#x679C;" d="M484 435v144h-289v-144h289zM195 608h289v143h-289v-143zM810 751h-297v-143h297v143zM810 579h-297v-144h297v144zM931 -28c-142 56 -324 184 -411 294h-7v-336h-29v336h-4c-85 -114 -263 -241 -409 -297c-5 9 -13 17 -22 25c143 50 310 165 395 272h-374v29h414v111
h-318v374h673v-374h-326v-111h417v-29h-374c85 -103 259 -219 397 -269c-9 -8 -17 -16 -22 -25z" /><glyph glyph-name="uni6807" unicode="&#x6807;" d="M895 710h-431v29h431v-29zM375 335c-25 43 -63 97 -114 164v-568h-30v571c-39 -112 -109 -247 -175 -322c-6 8 -14 15 -25 22c82 90 146 214 191 372h-157v29h166v227h30v-227h145v-29h-145v-33c36 -46 115 -147 139 -182zM381 51c58 72 108 183 137 289l29 -6
c-35 -123 -81 -223 -140 -300c-8 6 -17 12 -26 17zM814 341c61 -113 103 -211 126 -295l-31 -9c-22 87 -63 186 -123 297zM588 -39c37 0 66 -8 66 20v490h-231v29h525v-29h-264v-490c0 -23 -10 -38 -29 -43c-15 -4 -60 -6 -137 -6c-1 10 -9 22 -13 30c29 -1 56 -1 83 -1z
" /><glyph glyph-name="uni6839" unicode="&#x6839;" d="M255 631h137v-29h-137v-61c39 -55 82 -121 119 -179l-22 -26c-20 40 -69 118 -97 162v-566h-29v588c-35 -125 -96 -275 -159 -362c-7 11 -15 19 -22 24c77 102 135 242 174 420h-159v29h166v200h29v-200zM462 393h370v167h-370v-167zM462 753v-164h370v164h-370zM418 -35
c16 4 15 14 15 37v780h428v-418h-235c18 -69 44 -130 78 -185c77 43 143 87 196 130l23 -19c-56 -47 -134 -96 -205 -136c63 -92 141 -154 234 -187c-9 -7 -16 -16 -22 -26c-171 68 -282 226 -333 423h-135v-383l223 60c2 -21 5 -33 -18 -34c-77 -24 -174 -46 -235 -75
c-3 9 -7 20 -14 33z" /><glyph glyph-name="uni683C" unicode="&#x683C;" d="M250 552c18 -24 100 -149 117 -177l-22 -26c-28 49 -68 119 -95 160v-578h-29v589c-35 -126 -96 -276 -159 -362c-8 11 -15 19 -22 23c77 101 135 242 174 421h-154v29h161v200h29v-200h128v-29h-128v-50zM481 252v-245h345v245h-345zM452 281h403v-352h-29v49h-345v-49
h-29v352zM511 664c35 -71 83 -134 145 -189c79 63 139 134 178 212h-310zM878 705c-46 -98 -116 -182 -199 -249c80 -66 173 -115 278 -148c-7 -6 -13 -14 -18 -24c-107 37 -201 89 -281 156c-87 -68 -196 -125 -311 -166c-5 11 -12 20 -20 25c114 37 222 94 308 160
c-60 56 -106 116 -139 179c-30 -51 -64 -96 -103 -137c-8 7 -16 14 -25 20c77 77 140 179 188 307l29 -7c-13 -34 -30 -76 -46 -105c106 1 217 -3 320 2z" /><glyph glyph-name="uni6A21" unicode="&#x6A21;" d="M524 704h-176v29h176v97h29v-97h191v97h29v-97h167v-29h-167v-94h-29v94h-191v-94h-29v94zM321 320c-18 44 -67 135 -93 185v-573h-29v570c-30 -118 -79 -259 -131 -344c-9 11 -16 19 -23 23c67 104 116 244 148 421h-135v29h141v200h29v-200h117v-29h-117v-47
c39 -64 79 -141 117 -208zM432 330h421v101h-421v-101zM432 460h421v100h-421v-100zM665 164c50 -109 146 -179 288 -210c-8 -8 -15 -16 -20 -25c-150 39 -249 117 -298 235h-16c-50 -135 -141 -196 -295 -235c-3 8 -9 16 -17 24c142 35 232 90 280 211h-263v29h273
c8 27 15 63 21 108h-215v288h479v-288h-234c-5 -43 -12 -79 -20 -108h306v-29h-269z" /><glyph glyph-name="uni6B65" unicode="&#x6B65;" d="M822 397c-115 -245 -364 -397 -747 -458c-6 13 -11 22 -16 28c376 56 622 204 737 443zM112 177c76 62 157 156 204 243l29 -9c-50 -90 -134 -191 -209 -257c-6 7 -17 19 -24 23zM926 507v-29h-410v-340h-29v340h-418v29h164v232h29v-232h223v322h29v-133h300v-29h-300
v-160h412z" /><glyph glyph-name="uni6BB5" unicode="&#x6BB5;" d="M433 437c76 56 118 118 121 239v118h240v-273c0 -20 6 -30 19 -30c44 1 92 -2 133 2l3 -24c-42 -4 -92 -1 -138 -2c-31 0 -46 18 -46 55v243h-182c11 -169 -26 -284 -128 -349c-7 9 -14 16 -22 21zM423 808c-69 -31 -169 -60 -260 -79v-153h248v-29h-248v-176h249v-29
h-249v-189l267 43l1 -28c-89 -16 -178 -31 -268 -46v-184h-30v180l-81 -14l-7 30l88 14v601c90 18 195 49 260 80zM534 342c36 -93 86 -170 150 -231c63 63 108 140 135 231h-285zM856 364c-29 -111 -79 -202 -150 -273c69 -63 150 -106 242 -131c-7 -5 -14 -14 -21 -26
c-91 29 -171 75 -242 138c-72 -66 -164 -115 -273 -146c-4 11 -10 19 -18 26c106 27 199 76 270 139c-71 71 -123 153 -156 246l14 5h-45v29c119 1 244 -3 360 2z" /><glyph glyph-name="uni6BCF" unicode="&#x6BCF;" d="M243 690c-51 -87 -106 -159 -166 -218c-7 6 -19 16 -26 20c96 87 173 201 232 344l30 -8c-17 -40 -35 -76 -54 -109h662v-29h-678zM593 360c-49 47 -117 89 -202 126l20 21c88 -39 155 -80 202 -123zM372 274c93 -45 165 -93 217 -145l-18 -24c-52 52 -125 102 -218 149z
M765 88c8 64 12 143 17 212h-556l-34 -212h573zM259 536c-10 -66 -20 -140 -29 -207h554c3 55 6 145 8 207h-533zM792 59c-15 -110 -31 -136 -144 -129c-25 1 -49 2 -70 4c-1 11 -4 21 -9 28c40 -3 85 -5 128 -5c58 0 48 36 64 102h-605c13 66 26 146 41 241h-145v29h150
c10 68 22 163 32 236h588c-3 -81 -6 -164 -10 -236h139v-29h-140c-5 -95 -11 -166 -16 -212h130v-29h-133z" /><glyph glyph-name="uni6C42" unicode="&#x6C42;" d="M819 670c-46 42 -107 84 -183 126l19 19c75 -41 136 -81 183 -122zM399 -43c47 0 86 -12 86 27v285c-136 -78 -271 -158 -409 -234l-17 26c144 78 285 158 426 238v317h-413v29h413v181h29v-181h418v-29h-418c25 -105 70 -194 122 -282c80 67 152 139 215 218l25 -17
c-65 -78 -141 -152 -227 -223c78 -120 180 -224 310 -280c-10 -9 -17 -17 -22 -24c-197 89 -344 298 -423 522v-545c0 -85 -115 -50 -205 -59c-4 13 -9 24 -14 32c35 -1 69 -1 104 -1zM314 327c-35 60 -93 124 -172 192l24 15c79 -67 136 -130 173 -190z" /><glyph glyph-name="uni6CE8" unicode="&#x6CE8;" d="M645 650c-19 52 -51 109 -95 172l27 12c45 -62 77 -118 96 -169zM290 685c-51 39 -115 77 -192 113l17 21c83 -37 147 -73 192 -109zM232 415c-49 39 -110 75 -183 109l18 22c73 -33 133 -69 181 -106zM293 275c-50 -100 -130 -243 -187 -331l-25 21
c58 83 141 229 191 329zM952 -8v-29h-666v29h317v312h-247v29h247v273h-285v29h613v-29h-298v-273h262v-29h-262v-312h319z" /><glyph glyph-name="uni6D3E" unicode="&#x6D3E;" d="M274 689c-41 36 -98 72 -172 107l20 20c70 -31 128 -65 174 -104zM215 427c-43 36 -98 68 -166 96l20 21c72 -29 128 -60 167 -93zM262 277c-49 -115 -101 -223 -157 -325l-28 21c53 86 107 194 162 324zM254 -59c132 170 130 476 125 785c166 25 339 53 477 101l26 -24
c-136 -48 -309 -76 -474 -99c5 -303 4 -607 -130 -780c-4 5 -17 14 -24 17zM857 628c-48 -23 -105 -39 -168 -55c13 -95 32 -186 58 -273c53 42 128 101 169 146l21 -18c-49 -50 -122 -111 -182 -153c42 -132 105 -245 200 -311c-11 -9 -19 -17 -24 -25
c-155 113 -236 374 -270 627c-33 -8 -65 -15 -97 -20v-544l188 79c1 -10 3 -19 6 -28c-128 -57 -162 -71 -226 -103c-6 -4 -11 -8 -15 -11c-3 9 -9 19 -16 30c20 8 34 26 34 55v543c97 18 230 48 296 83z" /><glyph glyph-name="uni6D41" unicode="&#x6D41;" d="M328 449c72 22 62 36 122 105c32 37 59 73 83 106h-222v29h310c-15 44 -35 95 -54 131l26 7c27 -53 46 -99 59 -138h290v-29h-371c-47 -61 -113 -149 -159 -200l412 26c-33 39 -68 78 -105 117l24 14c81 -83 143 -157 186 -223l-26 -16c-12 21 -31 47 -58 79
c-163 -13 -365 -17 -506 -41c-1 9 -8 24 -11 33zM258 657c-38 45 -91 91 -160 140l21 17c68 -46 121 -91 159 -136zM227 410c-45 40 -104 78 -178 114l18 20c73 -33 132 -69 177 -108zM293 274c-61 -123 -124 -233 -187 -330l-25 20c64 93 128 203 191 329zM261 -50
c91 62 146 150 143 304v113h29c4 -148 0 -284 -70 -363c-23 -26 -48 -52 -80 -75c-4 7 -11 14 -22 21zM589 364h29v-393h-29v393zM808 17c-10 -64 38 -41 89 -44c18 3 22 11 26 32c2 13 3 49 4 106c7 -5 15 -10 24 -13c-7 -66 16 -158 -67 -152h-47c-55 1 -58 21 -58 83v338
h29v-350z" /><glyph glyph-name="uni6E20" unicode="&#x6E20;" d="M414 637v-111h418v111h-418zM936 351h-551v442h532v-29h-503v-98h447v-169h-447v-117h522v-29zM296 716c-49 32 -107 60 -176 84l17 20c74 -24 132 -51 174 -80zM86 349c65 49 137 114 216 193l14 -23c-71 -72 -141 -138 -211 -197zM256 566c-48 29 -109 57 -184 83
l17 21c71 -21 132 -47 182 -78zM933 -45c-154 45 -326 152 -408 264h-13v-292h-29v292h-13c-83 -108 -257 -220 -403 -270c-5 9 -12 17 -20 24c139 45 302 148 385 246h-372v29h423v86h29v-86h429v-29h-379c81 -104 243 -200 391 -238c-9 -9 -16 -18 -20 -26z" /><glyph glyph-name="uni6E38" unicode="&#x6E38;" d="M445 671c-18 41 -50 87 -96 139l26 13c45 -49 78 -94 99 -137zM249 681c-37 36 -89 75 -156 116l18 19c65 -39 118 -76 157 -111zM222 423c-45 33 -102 67 -173 102l16 21c74 -35 132 -67 173 -98zM226 262c-37 -109 -79 -215 -126 -318l-28 18c41 84 98 225 130 318z
M353 -28c42 1 115 -18 142 7c10 9 15 48 20 111c5 65 8 174 11 327h-136c-11 -201 -55 -387 -158 -488c-6 5 -20 14 -27 16c140 136 160 401 165 677h-115v29h349v-29h-205c-2 -55 -3 -127 -7 -176h163c-3 -146 -1 -253 -12 -366c-10 -98 -1 -133 -74 -140
c-27 -3 -63 0 -108 3c-1 12 -4 22 -8 29zM789 275h164v-29h-164v-271c0 -22 -9 -36 -26 -41c-14 -4 -57 -6 -128 -6c-1 10 -9 22 -13 30c65 -2 105 0 120 0c12 0 18 6 18 17v271h-179v29h179v106c48 28 89 61 124 100h-247v29c92 1 190 -3 279 2l22 -14
c-39 -49 -88 -92 -149 -130v-93zM574 527c58 76 99 186 121 304l30 -5c-11 -47 -24 -95 -40 -144h268v-29h-279c-25 -60 -49 -107 -74 -142z" /><glyph glyph-name="uni6FC0" unicode="&#x6FC0;" d="M529 693h-219v-109h219v109zM529 555h-219v-112h219v112zM374 722c15 36 29 75 37 109l33 -9c-12 -30 -29 -74 -40 -100h154v-308h-277v308h93zM215 676c-34 41 -80 82 -139 122l19 21c60 -40 106 -80 139 -119zM187 423c-38 37 -84 70 -139 101l17 22
c61 -33 107 -66 139 -98zM215 260c-43 -114 -89 -218 -136 -313l-25 21c45 85 92 189 140 312zM396 400c12 -21 25 -49 34 -75h169v-29h-228c0 -25 1 -60 -1 -81h184c-9 -120 -2 -191 -33 -251c-25 -26 -98 -14 -143 -13c-1 11 -5 21 -10 28c38 -1 100 -12 129 4
c22 53 20 107 27 203h-156c-16 -125 -65 -196 -148 -261c-5 6 -13 13 -22 20c98 69 154 175 144 351h-114v29h173c-7 19 -17 41 -29 66zM680 598c11 -147 47 -289 93 -398c49 113 76 244 94 398h-187zM574 401c64 109 100 261 118 430l30 -4c-9 -67 -20 -134 -35 -200h265
v-29h-56c-20 -172 -49 -310 -108 -433c43 -88 99 -161 175 -212c-10 -8 -18 -17 -23 -26c-71 54 -125 123 -168 207c-47 -85 -108 -154 -181 -207c-7 9 -14 16 -23 23c79 53 142 125 188 215c-47 103 -77 225 -95 362c-18 -57 -37 -101 -62 -144z" /><glyph glyph-name="uni7136" unicode="&#x7136;" d="M886 644c-28 45 -69 91 -122 138l22 16c54 -46 95 -91 124 -136zM218 123c-39 -69 -90 -144 -139 -192l-25 12c54 49 101 112 140 188zM49 470c94 83 183 230 225 366l30 -8c-11 -31 -24 -62 -38 -93c68 1 141 -3 206 2l17 -9c-56 -254 -194 -438 -403 -538
c-4 7 -14 17 -20 22c85 40 158 94 220 162c-43 37 -90 69 -142 98l19 20c55 -31 103 -62 142 -95c32 39 58 77 77 115c-42 31 -92 59 -150 85l17 21c58 -26 107 -53 146 -80c25 53 45 109 58 168h-201c-50 -104 -111 -189 -182 -255c-4 6 -14 14 -21 19zM391 115
c14 -67 22 -125 23 -172l-28 -4c-1 56 -9 114 -23 175zM710 572c37 -166 116 -307 243 -374c-9 -7 -16 -15 -22 -24c-110 65 -188 179 -234 340c-39 -171 -130 -257 -271 -338c-5 7 -12 14 -23 22c144 77 249 181 273 374h-187v29h190c4 70 1 147 2 220h29
c-1 -73 2 -150 -2 -220h231v-29h-229zM600 122c33 -63 56 -122 69 -176l-27 -8c-15 55 -38 115 -70 178zM807 136c67 -73 115 -137 144 -194l-26 -14c-33 61 -81 127 -143 196z" /><glyph glyph-name="uni7247" unicode="&#x7247;" d="M53 -50c107 118 145 291 145 520v329h29v-238h324v268h29v-268h326v-29h-679c0 -63 0 -139 -4 -192h492v-411h-29v382h-465c-13 -166 -62 -283 -146 -379c-5 7 -12 13 -22 18z" /></font>
</defs>
</svg>
