<?xml version="1.0" standalone="no"?>
<!DOCTYPE svg PUBLIC "-//W3C//DTD SVG 1.1//EN" "http://www.w3.org/Graphics/SVG/1.1/DTD/svg11.dtd" >
<svg xmlns="http://www.w3.org/2000/svg">
<metadata>
Created by FontForge 20120731 at Fri Nov  7 17:40:17 2014
 By Ads
</metadata>
<defs>
<font id="iconfont" horiz-adv-x="1024" >
  <font-face 
    font-family="iconfont"
    font-weight="500"
    font-stretch="normal"
    units-per-em="1024"
    panose-1="2 0 6 3 0 0 0 0 0 0"
    ascent="812"
    descent="-212"
    x-height="792"
    bbox="-199 -212.429 1220.04 812.281"
    underline-thickness="50"
    underline-position="-100"
    unicode-range="U+0078-F015B"
  />
<missing-glyph horiz-adv-x="374" 
d="M34 0v682h272v-682h-272zM68 34h204v614h-204v-614z" />
    <glyph glyph-name=".notdef" horiz-adv-x="374" 
d="M34 0v682h272v-682h-272zM68 34h204v614h-204v-614z" />
    <glyph glyph-name=".null" horiz-adv-x="0" 
 />
    <glyph glyph-name="nonmarkingreturn" horiz-adv-x="341" 
 />
    <glyph glyph-name="x" unicode="x" horiz-adv-x="1001" 
d="M281 543q-27 -1 -53 -1h-83q-18 0 -36.5 -6t-32.5 -18.5t-23 -32t-9 -45.5v-76h912v41q0 16 -0.5 30t-0.5 18q0 13 -5 29t-17 29.5t-31.5 22.5t-49.5 9h-133v-97h-438v97zM955 310v-52q0 -23 0.5 -52t0.5 -58t-10.5 -47.5t-26 -30t-33 -16t-31.5 -4.5q-14 -1 -29.5 -0.5
t-29.5 0.5h-32l-45 128h-439l-44 -128h-29h-34q-20 0 -45 1q-25 0 -41 9.5t-25.5 23t-13.5 29.5t-4 30v167h911zM163 247q-12 0 -21 -8.5t-9 -21.5t9 -21.5t21 -8.5q13 0 22 8.5t9 21.5t-9 21.5t-22 8.5zM316 123q-8 -26 -14 -48q-5 -19 -10.5 -37t-7.5 -25t-3 -15t1 -14.5
t9.5 -10.5t21.5 -4h37h67h81h80h64h36q23 0 34 12t2 38q-5 13 -9.5 30.5t-9.5 34.5q-5 19 -11 39h-368zM336 498v228q0 11 2.5 23t10 21.5t20.5 15.5t34 6h188q31 0 51.5 -14.5t20.5 -52.5v-227h-327z" />
    <glyph glyph-name="uF0020" unicode="&#xf0020;" 
d="M1024 119q0 -26 -8.5 -48.5t-24.5 -40.5t-37 -30t-46 -16l1 -1h-17h-4h-4h-676q-5 -1 -17 -1q-39 0 -74 15t-61 41t-41 61t-15 75t15 75t41 61t61 41.5t74 15.5h2q-2 8 -2 15v16q0 73 28 137.5t76 112t112 75.5t136.5 28t137 -28t113 -75.5t76 -112t27.5 -137.5
q0 -38 -8 -74t-23 -69q5 1 11 1.5t11 0.5q27 0 52.5 -11t43.5 -29.5t29 -44t11 -53.5zM666 241q20 0 26 4.5t-8 21.5q-14 19 -31.5 48.5t-36.5 60t-38.5 57.5t-37.5 39q-19 13 -27.5 14t-25.5 -12q-18 -15 -35.5 -38.5t-35.5 -50.5t-36 -52.5t-36 -44.5t-13 -33t25 -14h17
q9 0 19.5 -0.5t21.5 -0.5h17q14 -1 18.5 -10t4.5 -24q0 -18 -0.5 -31t-0.5 -25.5t-0.5 -25.5t-0.5 -31q0 -7 1.5 -15t5.5 -15.5t12 -12t22 -4.5h23q9 0 28 -1q24 0 27.5 12.5t3.5 38.5q0 24 1 43t1 51q0 24 4.5 37t19.5 13q11 0 32 0.5t33 0.5z" />
    <glyph glyph-name="uF0022" unicode="&#xf0022;" 
d="M1024 511l-602 -602l-301 301l602 602zM0 89l301 -301h-301v301z" />
    <glyph glyph-name="uF0023" unicode="&#xf0023;" 
d="M512 513l423 -424h-181v-301h-484l-1 301h-178zM995 812v-121h-966v121h966z" />
    <glyph glyph-name="uF0024" unicode="&#xf0024;" 
d="M274 434q-27 0 -35 15t11 38q19 25 45 60t53.5 72t53.5 72.5t47 61.5q18 23 35 24t36 -21q20 -24 45 -57t51.5 -69.5t52.5 -71.5t47 -60q22 -28 17 -46.5t-34 -17.5q-17 0 -44.5 -1t-46.5 -1q-20 -1 -24.5 -12.5t-4.5 -32.5v-50q0 -28 0.5 -56.5t0.5 -56.5v-51
q0 -10 -1.5 -21.5t-7.5 -20.5t-16.5 -15t-29.5 -6q-21 0 -39 -0.5t-43 -0.5q-33 0 -45 15.5t-12 50.5v40q0 24 -0.5 50.5t-0.5 52.5v49q0 30 -6 48t-28 17q-15 0 -37 1t-40 1zM962 -89q6 -25 -3 -47.5t-27.5 -39.5t-45 -26.5t-57.5 -9.5h-694q-37 0 -65 13.5t-45 33
t-22.5 42.5t1.5 41q6 14 12 30q6 13 13 30t15 34l39 94h117l-44 -129h659l-44 129h112q21 -52 39 -94q7 -18 14 -35.5t12.5 -31.5t9.5 -23.5t4 -10.5z" />
    <glyph glyph-name="uF0025" unicode="&#xf0025;" 
d="M893 684q29 0 49 -20t20 -49v-52q0 -29 -20 -48.5t-49 -19.5h-760q-29 0 -48.5 19.5t-19.5 48.5v52q0 29 19.5 49t48.5 20h760zM893 363q29 0 49 -19.5t20 -48.5v-52q0 -29 -20 -49t-49 -20h-760q-29 0 -48.5 20t-19.5 49v52q0 29 19.5 48.5t48.5 19.5h760zM893 43
q29 0 49 -20t20 -49v-52q0 -29 -20 -48.5t-49 -19.5h-760q-29 0 -48.5 19.5t-19.5 48.5v52q0 29 19.5 49t48.5 20h760z" />
    <glyph glyph-name="uF0026" unicode="&#xf0026;" 
d="M0 -212l106 474l589 37l-589 40l-106 473l1024 -512z" />
    <glyph glyph-name="uF0031" unicode="&#xf0031;" 
d="M512 812q106 0 199 -40.5t162.5 -110t110 -162.5t40.5 -199.5t-40.5 -199t-110 -162t-162.5 -110t-199 -40.5t-199 40.5t-162.5 110t-110 162t-40.5 199t40.5 199.5t110 162.5t162.5 110t199 40.5zM545 -54q28 0 48 20t20 48q0 29 -20 49.5t-48 20.5t-48.5 -20.5
t-20.5 -49.5q0 -28 20.5 -48t48.5 -20zM611 224q0 14 19 32.5t42.5 45.5t42.5 63.5t19 86.5q0 32 -12.5 68t-40 66t-71.5 49t-106 19q-47 0 -82 -11.5t-58.5 -31t-38.5 -43.5t-22.5 -49.5t-10 -49t-2.5 -41.5q0 -24 20.5 -34.5t45 -8.5t45 14.5t20.5 34.5q0 13 2 30t10 31.5
t25 24t48 9.5q48 0 76.5 -26.5t28.5 -63.5q0 -19 -9 -38t-23 -36.5t-31 -33t-31 -28.5t-23.5 -23.5t-9.5 -17.5v-74q0 -10 19.5 -14.5t43.5 -4t44 5.5t20 17v32z" />
    <glyph glyph-name="uF0037" unicode="&#xf0037;" 
d="M885 766q17 0 34 -8t30 -21t21 -30t8 -34v-466h-745q-39 0 -66 -37.5t-28 -121.5q0 -45 8 -76.5t20.5 -51.5t29.5 -29.5t35 -9.5h40h87h117h131h351l20 -47h-746q-139 0 -139 140v699q0 17 8 34t21 30t30 21t34 8h420v-373l67 93l72 -93l1 373h139zM978 160
q-14 -16 -26 -34q-9 -16 -16.5 -39t-7.5 -50.5t7.5 -47.5t16.5 -34q12 -16 26 -28h-745q-17 0 -26 18t-14 40q-6 25 -7 57q1 32 7 58q5 23 13.5 41.5t25.5 18.5h746z" />
    <glyph glyph-name="uF0038" unicode="&#xf0038;" 
d="M977 -72q0 -19 -6.5 -36t-19 -30t-29 -20t-35.5 -7h-744q-19 0 -36.5 7t-31 20t-21 30t-7.5 36v511q0 39 27 66t66 27h744q39 0 66 -27t27 -66v-139h-233q-38 0 -65.5 -26.5t-27.5 -65.5q1 -27 12 -47q8 -18 27 -32t54 -14h233v-187zM838 580h-465q55 28 104 55
q43 22 85 44.5t66 35.5q36 19 64 17.5t47 -9.5q23 -11 39 -30zM698 207.5q0 19.5 13.5 33t33 13.5t33 -13.5t13.5 -33t-13.5 -33t-33 -13.5t-33 13.5t-13.5 33z" />
    <glyph glyph-name="uF003D" unicode="&#xf003d;" horiz-adv-x="1121" 
d="M700 439q117 -104 210 -189q39 -36 77 -71t67.5 -63.5t47.5 -47t18 -21.5v-62q0 -4 -18 1.5t-47.5 17.5t-67.5 28t-77 33q-93 41 -210 95v-193q27 -20 50 -38q21 -15 41 -30t32 -23q13 -9 15 -19t2 -23v-35q0 -8 -17 -10.5t-40 8.5q-11 6 -41 18.5t-63.5 26.5t-64.5 26.5
t-47 18.5q-2 0 -3.5 0.5t-3.5 0.5t-3.5 -0.5t-3.5 -0.5q-15 -6 -46.5 -18.5t-65 -26.5t-63.5 -26.5t-41 -18.5q-23 -11 -40 -8.5t-17 10.5v35q0 13 2 23t15 19q12 8 32.5 23t40.5 30q23 18 50 38v193q-117 -54 -210 -95q-40 -17 -77.5 -33t-67 -28t-47.5 -17.5t-18 -1.5v62
q0 3 18 21.5t47.5 47t67 63.5t77.5 71q93 85 210 189v232q0 35 10 59t25.5 39t33.5 23.5t34 12.5t26 4.5t11 0.5h10q12 -1 27.5 -5t33.5 -12.5t33.5 -23.5t25.5 -39t10 -59v-232z" />
    <glyph glyph-name="uF003F" unicode="&#xf003f;" 
d="M793 812q19 0 36 -7t29.5 -20t20 -30t7.5 -36v-838q0 -39 -27.5 -66t-65.5 -27h-560q-38 0 -65.5 27t-27.5 66v838q0 19 7.5 36t20 30t29.5 20t36 7h560zM420 719h185v47h-185v-47zM512 -165q19 0 36 7t30 20t20 30t7 36.5t-7 36.5t-20 29t-30 19t-36 7
q-39 0 -65.5 -26.5t-26.5 -65.5t26.5 -66t65.5 -27zM793 673h-560v-605h560v605z" />
    <glyph glyph-name="uF0042" unicode="&#xf0042;" horiz-adv-x="1138" 
d="M1138 812v-796l-268 -228h-870v1024h1138zM796 130h-626v-114h626v114zM967 357h-797v-114h797v114zM967 585h-797v-115h797v115z" />
    <glyph glyph-name="uF0043" unicode="&#xf0043;" horiz-adv-x="1139" 
d="M1138 487v-8v-9q0 -43 -15 -81.5t-42 -68.5v-532h-1024v532q-26 30 -41.5 68.5t-15.5 81.5v342h1138v-325zM967 250q-14 -3 -27.5 -5t-29.5 -2q-51 0 -95 21t-75 56q-32 -35 -75.5 -56t-95.5 -21q-51 0 -94.5 21t-75.5 56q-32 -35 -75.5 -56t-95.5 -21q-28 0 -57 7v-348
h796v348z" />
    <glyph glyph-name="uF0044" unicode="&#xf0044;" horiz-adv-x="1138" 
d="M427 300q-30 0 -56 11t-45 30.5t-30.5 45.5t-11.5 55t11.5 55t30.5 45t45 30.5t56 11.5q29 0 55 -11.5t45 -30.5t30.5 -45t11.5 -55t-11.5 -55t-30.5 -45.5t-45 -30.5t-55 -11zM1138 -212h-1138v1024h1138v-114v-910zM1024 698h-910v-702q17 24 37 47.5t41.5 42.5
t45 31.5t46.5 12.5q29 0 49 -4.5t36 -10.5t30 -14t29.5 -14t35.5 -10.5t48.5 -4.5t49 17t37.5 42.5t34.5 54.5t39 54.5t51.5 42.5t73 17q36 0 69.5 -22.5t62.5 -58t53 -79t42 -85.5v643z" />
    <glyph glyph-name="uF0046" unicode="&#xf0046;" horiz-adv-x="1027" 
d="M318 242h133l-2 -136h-128zM641 235h128v-129h-128v129zM449 556h192v-129h-192v129zM893 747q29 0 53 -10.5t42 -29t28 -43.5t10 -54v-621q0 -29 -10 -54t-28 -43.5t-42 -29.5t-53 -11h-691q-29 0 -54 11t-43.5 29.5t-29 43.5t-10.5 54v621q0 29 10.5 54t29 43.5
t43.5 29t54 10.5h691zM512 -17q-1 5 -1.5 29t-0.5 57v71q0 38 0.5 71.5t1 57.5t1.5 30q-6 -1 -25 -1.5t-45 -1t-55.5 -0.5t-56 0.5t-47 1t-27.5 1.5q1 -5 1.5 -28.5t1 -57t0.5 -72t-0.5 -72.5t-1 -59t-1.5 -32h61l3 65h128l2 -60h61zM385 363q10 2 35.5 3t59 1.5t70.5 0.5
t69 -0.5t55.5 -1t31.5 -1.5q-1 5 -2 24.5t-1.5 46t-0.5 56.5t0.5 56.5t1.5 46t2 24.5q-8 -1 -32 -1.5t-56.5 -1t-69.5 -0.5h-71q-33 0 -58 1t-34 2q1 -4 1.5 -22.5t0.5 -45.5v-58v-58q0 -27 -0.5 -46.5t-1.5 -25.5zM833 -14q-2 5 -2 28v57v71v72q0 33 1 56.5t2 28.5
q-8 -1 -27.5 -1.5t-46 -1t-55.5 -0.5h-56q-25 0 -45 0.5t-26 1.5q1 -5 1.5 -29t0.5 -57v-72v-72q0 -34 -0.5 -58.5t-1.5 -31.5h59l4 65h128l3 -57h61z" />
    <glyph glyph-name="uF004F" unicode="&#xf004f;" 
d="M769 362q27 0 45.5 -18t18.5 -45t-18.5 -46t-45.5 -19h-513q-27 0 -46 19t-19 46t19 45t46 18h513z" />
    <glyph glyph-name="uF0057" unicode="&#xf0057;" 
d="M316 -9q0 -27 -9 -45t-23.5 -29t-32 -15.5t-34.5 -4.5h-17q-18 0 -37 5.5t-34 17.5t-25.5 31t-10.5 46v642q0 23 10.5 42.5t27 33t37.5 20.5t42.5 7t41 -8.5t34 -23t22.5 -33t8 -38.5v-648zM956 -4q0 -51 -30 -74.5t-108 -23.5l-435 -1v845h435q78 0 108 -24.5t30 -84.5
v-637zM830 578q0 24 -29 24h-260q-18 0 -24 -7t-6 -23v-97q0 -16 6 -22t21 -6h265q16 0 21.5 7t5.5 19v105zM587 283q0 5 -1.5 7t-8.5 2h-51q-12 0 -12 -10v-24q0 -9 10 -9h53q10 0 10 9v25zM587 188q0 6 -1.5 8t-8.5 2h-51q-12 0 -12 -11v-24q0 -9 10 -9h53q10 0 10 9v25z
M587 89q0 5 -1.5 7t-8.5 2h-51q-12 0 -12 -10v-24q0 -9 10 -9h53q10 0 10 9v25zM824 285q0 5 -1.5 7t-7.5 2h-51q-11 0 -11 -10v-24q0 -9 10 -9h52q6 0 7.5 2t1.5 7v25zM824 190q0 6 -1.5 8t-7.5 2h-51q-11 0 -11 -11v-24q0 -9 10 -9h52q6 0 7.5 2t1.5 7v25zM824 91
q0 5 -1.5 7t-7.5 2h-51q-11 0 -11 -10v-23q0 -10 10 -10h52q6 0 7.5 2t1.5 8v24zM706 285q0 5 -2 7t-8 2h-51q-11 0 -11 -10v-24q0 -5 1.5 -7t7.5 -2h53q10 0 10 9v25zM706 190q0 6 -2 8t-8 2h-51q-11 0 -11 -11v-24q0 -4 1.5 -6.5t7.5 -2.5h53q10 0 10 9v25zM706 91
q0 5 -2 7t-8 2h-51q-11 0 -11 -10v-23q0 -6 1.5 -8t7.5 -2h53q10 0 10 10v24z" />
    <glyph glyph-name="uF005B" unicode="&#xf005b;" 
d="M422 -38q0 -23 -9 -43t-24 -35.5t-35.5 -24.5t-43.5 -9t-43 9t-35.5 24.5t-24 35.5t-8.5 43t8.5 43.5t24 35.5t35.5 24t43 9t43.5 -9t35.5 -24t24 -35.5t9 -43.5zM807 -38q0 -23 -8.5 -43t-24 -35.5t-36 -24.5t-43.5 -9t-43.5 9t-36 24.5t-24 35.5t-8.5 43t8.5 43.5
t24 35.5t36 24t43.5 9t43.5 -9t36 -24t24 -35.5t8.5 -43.5zM347 162q0 -12 -9.5 -19t-24 -7t-24 7t-9.5 19v448q0 12 9.5 21t24 9t24 -7.5t9.5 -20.5v-450zM728 162q0 -12 -9 -19t-23.5 -7t-24 7t-9.5 19v452q0 13 9.5 19.5t24 6.5t23.5 -6.5t9 -19.5v-452z" />
    <glyph glyph-name="uF005C" unicode="&#xf005c;" 
d="M507 664q28 -27 51 -26.5t54 29.5q13 11 32 1t42 -31.5t48 -52t48.5 -61t44.5 -58t35 -42.5q19 -21 29.5 -51.5t-3.5 -68.5q-9 -25 -13.5 -57t-5 -64t3.5 -59.5t10 -42.5q18 -47 18.5 -81.5t-27.5 -47.5q-23 -10 -60 -21.5t-82.5 -21t-96 -16t-100.5 -6.5t-101.5 5
t-96.5 14.5t-80 24t-50.5 35t-12 44t11.5 62.5q4 19 9.5 49t8.5 63t1.5 63.5t-10.5 51.5q-19 43 -14 74.5t41 63.5q13 11 33.5 36.5t45.5 55t51.5 59t52 51t47 30t35.5 -3.5z" />
    <glyph glyph-name="uF005F" unicode="&#xf005f;" 
d="M495.5 361.5q8.5 -6.5 27 -8t41 -0.5t47.5 2t46.5 -1t38 -8.5t21.5 -21t-3.5 -28t-26 -26.5t-39.5 -26t-42 -25t-35 -24.5t-18 -23.5q-3 -12 1 -31t11.5 -41.5t16 -46t13 -44t3.5 -36.5t-11 -23q-12 -7 -26.5 -1.5t-31.5 17t-36 27.5t-37 30.5t-35 24.5t-31 10
q-21 0 -49 -20t-56.5 -42.5t-54 -36t-42.5 -1.5q-11 8 -11 24t6 36.5t16.5 43t18.5 44t13 41t0.5 32.5t-19 26.5t-34 27t-40 26.5t-36.5 26.5t-24.5 27t-3.5 26.5t21 18t37 6t46 -0.5t48 -3t42 -0.5t29 8q15 9 27.5 41t24 67.5t24 63t27.5 27.5q11 0 19.5 -13t16 -33.5
t15 -45.5t14.5 -47.5t14.5 -40t16 -24zM886 581q6 -6 24 -5.5t37.5 1.5t35.5 -2.5t20.5 -14.5t-8 -22t-29.5 -20.5t-32 -19.5t-18 -19t3 -27t12 -36.5t9 -33.5t-6 -22q-9 -5 -22.5 3.5t-28 20.5t-28.5 23.5t-25.5 11.5t-26.5 -11t-29.5 -22.5t-28.5 -19.5t-23 0q-9 6 -5 21
t11.5 32.5t14 35t2.5 27.5q-4 11 -18.5 21.5t-30.5 21.5t-27.5 21.5t-7 21t20 12.5t34.5 1t37 -2t26 4t15 22t13 35t12.5 33t15 15t15 -15t12 -33.5t11.5 -36t13 -22.5z" />
    <glyph glyph-name="uF0060" unicode="&#xf0060;" 
d="M940 350q45 -53 1 -102l-317 -319q-11 -8 -22.5 -11.5t-24 -2.5t-23 5t-17.5 11q-115 115 -205 206l-76 77q-38 37 -67 66.5t-48 48.5l-19 19q-2 2 -6.5 8.5t-10 17.5t-9.5 24.5t-4 28.5v18q0 15 0.5 36.5t1 47t0.5 52.5q1 62 2 138q2 12 4.5 24.5t13.5 23.5
q10 10 23 13.5t23 3.5h311q2 1 14.5 0.5t15.5 -2.5q6 -2 13.5 -7t12.5 -10zM241.5 575q26.5 0 45 18.5t18.5 45.5t-18.5 45t-45 18t-45.5 -18t-19 -45t19 -45.5t45.5 -18.5z" />
    <glyph glyph-name="uF0062" unicode="&#xf0062;" 
d="M544 164q0 31 -12 58.5t-32 47.5t-47 31.5t-57.5 11.5t-58.5 -11.5t-48 -31.5t-31.5 -47.5t-11.5 -58.5t11.5 -58t31.5 -47t48 -32t58.5 -12t57.5 12t47 32t32 47t12 58zM736 -40q0 23 -8.5 43.5t-24 35t-36 23.5t-42.5 9q-24 0 -44 -9t-35 -23.5t-23.5 -35t-8.5 -43.5
q0 -24 8.5 -43.5t23.5 -35t35 -24.5t44 -9q22 0 42.5 9t36 24.5t24 35t8.5 43.5zM546 338q-45 0 -84 17t-68 46t-46 68t-17 83t17 83.5t46 68t68 45.5t84 17q44 0 83 -17t68 -45.5t46 -68t17 -83.5t-17 -83t-46 -68t-68 -46t-83 -17zM435.5 647q-17.5 0 -30 -12t-12.5 -29.5
t12.5 -30t30 -12.5t29.5 12.5t12 30t-12 29.5t-29.5 12z" />
    <glyph glyph-name="uF0063" unicode="&#xf0063;" 
d="M286 678q0 -14 -9.5 -22.5t-22.5 -8.5q-12 0 -21 9t-9 24l-1 71q0 17 9.5 25.5t21.5 8.5q13 0 22.5 -9t9.5 -26v-72zM926 486h-844v107q0 31 17.5 50t47.5 19h710q38 0 53.5 -18.5t15.5 -48.5v-109zM926 78q0 -33 -6.5 -57t-20.5 -40t-38 -23.5t-60 -7.5h-593
q-73 0 -99.5 33.5t-26.5 102.5v329h844v-337zM520 211q-10 0 -17 -7t-7 -17.5t7 -17.5t17 -7t17.5 7t7.5 17.5t-7.5 17.5t-17.5 7zM552 264h78q16 0 21.5 -15.5t-13.5 -34.5q-20 -18 -35 -36.5t-25 -43.5q-9 -21 -9 -38.5t1 -24.5q3 -21 26 -21q8 0 11.5 6.5t3.5 15.5
q0 4 0.5 13.5t3 21t8 23.5t13.5 22q16 18 36.5 37.5t27.5 39.5q3 11 2.5 23.5t-5.5 23.5t-14.5 18.5t-23.5 8.5q-10 1 -24 1h-31q-15 0 -28 -0.5t-19 -0.5q-11 0 -16 -6.5t-6 -11.5q0 -7 4.5 -14t12.5 -7zM356 268q5 2 12.5 2t14.5 -2.5t13 -8t10 -14.5q3 -15 -5 -28
t-16 -17q-9 -5 -8 -14.5t8 -13.5q6 -4 13.5 -8t12.5 -19q1 -6 0.5 -14.5t-5 -17t-11.5 -15t-18 -8.5q-22 -4 -34 6t-14 18q-3 8 -10.5 10.5t-13.5 0.5q-9 -2 -11.5 -11.5t-0.5 -14.5t9.5 -17t29.5 -24q10 -6 27.5 -7.5t35 2t33 15t24.5 31.5q7 18 6 32.5t-6 25.5t-10.5 17
t-6.5 8q-5 5 -4.5 11t5.5 11q6 9 9.5 18t1.5 24q0 7 -2.5 16.5t-9.5 18.5t-19 16t-31 10t-34 -1.5t-26 -12t-17 -16.5t-8 -13q-4 -9 -1 -19t11 -12t13 2.5t8 9.5q2 5 8 11.5t17 11.5zM783 679q0 -14 -8.5 -23t-20.5 -9q-14 0 -22.5 8.5t-8.5 23.5v76q0 17 8.5 23.5t22.5 6.5
q12 0 20.5 -7.5t8.5 -24.5v-74z" />
    <glyph glyph-name="uF0064" unicode="&#xf0064;" 
d="M875.5 379q-7.5 1 -13 10t-8.5 34q-5 40 -26 59t-65 27q-46 9 -81.5 37t-58.5 53q-23 22 -35.5 15.5t-12.5 -22.5v-44v-96q0 -58 -0.5 -124.5t-0.5 -125.5v-105v-58q1 -25 -7.5 -55t-32.5 -56.5t-64 -45.5t-99 -22q-61 -3 -109.5 21.5t-75 62t-26 82t38.5 83t82 54t85 17
t73 -5.5t47 -13v290q0 120 1 272q0 30 15.5 48.5t41.5 22.5q21 3 35 -9t28.5 -33t35.5 -47.5t56 -52.5q31 -23 54 -33.5t43 -19t39.5 -21t43.5 -39.5q23 -27 28 -55.5t0.5 -52t-14.5 -38.5t-17.5 -14z" />
    <glyph glyph-name="uF0066" unicode="&#xf0066;" 
d="M499.5 772q95.5 1 179 -34.5t146.5 -96.5t100 -144t38 -179q1 -91 -31.5 -170t-89 -140.5t-133 -101t-164.5 -48.5q-24 -3 -50 -5.5t-58.5 -3.5t-71 0t-87.5 6q-109 11 -161 28t-43 19q58 9 95 30q20 12 17 33t-20 40q-52 58 -85.5 136t-35.5 168q-1 95 34.5 179
t97.5 147t144.5 99.5t178 37.5zM676 310q0 -22 16 -38t38.5 -16t38 16t15.5 38q0 24 -15.5 39.5t-38 15.5t-38.5 -15.5t-16 -39.5zM450 310q0 -22 15.5 -38t38 -16t38.5 16t16 38q0 24 -16 39.5t-38.5 15.5t-38 -15.5t-15.5 -39.5zM224 310q0 -22 15.5 -38t39.5 -16
q22 0 38 16t16 38q0 24 -16 39.5t-38 15.5q-24 0 -39.5 -15.5t-15.5 -39.5z" />
    <glyph glyph-name="uF0069" unicode="&#xf0069;" 
d="M358 480q23 29 50 50q22 19 49.5 34.5t57.5 13.5q43 -4 71.5 -20.5t45.5 -43t23.5 -59t4 -66.5t-13 -64.5t-26.5 -57.5t-34.5 -49.5t-36.5 -41.5q-28 -29 -59 -55t-59 -46t-50 -31.5t-32 -11.5q-11 0 -31 12t-45 32.5t-52.5 46.5t-55.5 53q-18 16 -39.5 38.5t-40 48.5
t-32 57t-14.5 67q-3 72 34 123t103 65q33 7 65.5 -7t59.5 -34q31 -22 57 -54zM636 578q13 0 26 -2q11 -1 22.5 -3t21 -6t19.5 -10.5t19 -12.5l21 -17q6 6 13 12q6 5 15.5 10.5t21.5 12.5t28 10.5t33 2.5t33.5 -6.5t27.5 -17.5q32 -34 38 -66t-1.5 -60.5t-23 -50t-27.5 -33.5
q-24 -24 -45 -41t-52 -40q-16 -11 -34 -19.5t-27 -8.5t-20 8.5t-26 20.5q-6 5 -13.5 11t-12.5 12l-12 12q11 20 18 46q7 21 10 50.5t-3 63.5q-8 32 -19 55t-22 38q-14 17 -29 29z" />
    <glyph glyph-name="uF006A" unicode="&#xf006a;" 
d="M816 573q6 5 12 9l10 8q6 4 10 7q10 9 22.5 7.5t20.5 -10t9 -22t-7 -21.5l-9 -9l-10 -10q-6 -5 -13 -11q13 -16 26 -42.5t24.5 -58.5t18.5 -67.5t7 -70.5q0 -85 -32.5 -160t-88 -130.5t-130 -88t-160 -32.5t-160.5 32.5t-130.5 88t-88 130.5t-32.5 160.5t32.5 160t88 130
t130.5 88t160 32.5q88 0 163 -33t127 -87zM527 619q-70 0 -131.5 -26.5t-107 -72.5t-72 -107.5t-26.5 -131.5t26.5 -131.5t72 -107.5t107 -72t131.5 -26t131.5 26t107.5 72t72.5 107.5t26.5 131.5t-26.5 131.5t-72.5 107.5t-107.5 72.5t-131.5 26.5zM595 755q0 -14 -7 -26
t-17 -20t-22 -12t-22 -4q-11 0 -23 4t-22.5 12t-17 19.5t-6.5 26.5v57h137v-57zM546 271q-9 -6 -18 -5.5t-15 8.5q-6 7 -5 16t9 17l208 176q7 5 17 5t16 -8t5 -17t-10 -17zM558 561q0 -12 -9 -21.5t-22 -9.5t-22 9.5t-9 21.5q0 13 9 22t22 9t22 -9t9 -22zM294 282
q0 -13 -9 -22t-22 -9t-22 9t-9 22t9 22t22 9t22 -9t9 -22zM557 10.5q0 -13.5 -9 -22.5t-22 -9t-22 9t-9 22.5t9 22t22 8.5t22 -8.5t9 -22zM820 282q0 -13 -9 -22t-21 -9q-14 0 -23 9t-9 22t9 22t23 9q12 0 21 -9t9 -22z" />
    <glyph glyph-name="uF006B" unicode="&#xf006b;" 
d="M978 268v-265q0 -139 -185 -139h-584q-45 0 -76.5 11t-51.5 31.5t-28.5 49t-8.5 61.5v251h934zM507 227q-11 -2 -21 -6q-8 -4 -14 -12.5t-6 -24.5v-54h-60q-15 0 -27.5 -10t-12.5 -30q-1 -18 12 -29t28 -11h60v-59q0 -9 9.5 -23.5t30 -14.5t30.5 14.5t10 25.5v57h62
q12 0 25 10t13 30t-12 30t-28 10h-60v58q0 12 -10 25.5t-29 13.5zM355 543q-2 21 2 44q3 19 12 41t28 43q16 16 40.5 28t52 15.5t57.5 -2t56 -23.5q27 -18 39.5 -42.5t17.5 -48.5q7 -27 6 -55h-57q1 13 -1 26q-2 12 -6 25t-12 24q-9 13 -21 19.5t-23 10t-21.5 4.5t-14.5 1
q-9 1 -27.5 -2.5t-42.5 -21.5q-11 -10 -17 -24t-8 -29q-3 -16 -2 -33h-58zM190 319h-148v23v24q0 13 1 27q0 15 5.5 32.5t19.5 33t35.5 26.5t54.5 11h76h128h152h150h122h70q26 0 47.5 -8.5t37.5 -22.5t25.5 -33t9.5 -41v-71h-151v33q0 12 -10 22.5t-24.5 10.5t-27 -8
t-12.5 -25v-34h-486v33q-1 14 -12 24t-25.5 10t-26.5 -11.5t-12 -25.5v-21q0 -4 1 -9z" />
    <glyph glyph-name="uF006E" unicode="&#xf006e;" 
d="M522 708q2 0 5 2q7 4 17 14q12 11 24.5 16t32.5 -3q10 -3 16.5 -8.5t12 -10.5t12 -8.5t17 -3.5t17.5 3t13.5 5.5t13.5 3.5t16 -2q10 -4 13.5 -12t2 -16t-7 -16t-13.5 -14q-20 -12 -30 -24.5t-20 -27.5q-6 -7 -12 -16t-11 -19q-6 -11 -13 -21h-212q-7 12 -15 23
q-6 11 -13 21t-12 18q-10 16 -23 27.5t-25 20.5q-14 10 -19 25.5t9 27.5q8 5 17 4t19.5 -4t20 -6.5t17.5 -0.5q15 3 22 10.5t24 18.5q14 8 30 5.5t25 -10.5q4 -5 8.5 -8.5t9.5 -6.5q5 -4 11 -7zM638 503q12 -17 31 -36q15 -17 37.5 -39.5t52.5 -46.5q24 -22 50.5 -51
t45.5 -68t27 -89.5t-2 -113.5q-10 -51 -37 -96.5t-72 -79.5t-107 -53.5t-141 -19.5q-81 0 -143.5 23t-106 59.5t-69 82t-33.5 91.5q-9 50 -2.5 96t24 86.5t43.5 74t57 60.5q26 23 47.5 44t36.5 39q17 19 31 37h230zM529 188l-27 28l-22 22q-10 10 -14 15q-8 7 -21.5 11.5
t-22.5 -5.5q-8 -11 -4 -22t9 -17l15 -14q12 -12 25 -27q15 -16 34 -35l-1 -21h-70q-9 0 -15.5 -7t-6.5 -15.5t6 -14.5t16 -6h70v-36h-70q-9 0 -15.5 -5.5t-6.5 -14.5q-1 -9 5.5 -14.5t16.5 -5.5h70v-20q1 -15 9 -20.5t20 -5.5q13 -1 20.5 7.5t7.5 18.5v20h72q10 0 16.5 4.5
t5.5 15.5q0 21 -28 21h-66l1 35l67 1q14 -1 20 5.5t6 15.5t-6.5 15.5t-20.5 6.5h-67v19l32 32q12 12 24.5 25t18.5 18q23 21 10 36q-7 9 -18.5 9t-20.5 -8q-5 -4 -17.5 -15t-24.5 -22q-14 -13 -32 -30z" />
    <glyph glyph-name="uF0070" unicode="&#xf0070;" 
d="M902 622q43 -1 64.5 -24.5t21.5 -60.5v-42q0 -37 -0.5 -89t-0.5 -112t-0.5 -112t-0.5 -90v-45q0 -33 -19 -55t-46 -22h-785q-33 1 -57.5 24t-24.5 60v482q0 16 6 31.5t16.5 27.5t26 20t35.5 8h44h88h117h133h131q66 0 118.5 -0.5t88.5 -0.5h44zM857 525h-694l1 -452
l692 1zM924.5 335q-15.5 0 -26.5 -11t-11 -26t11 -26t26.5 -11t27 11t11.5 26t-11.5 26t-27 11z" />
    <glyph glyph-name="uF0079" unicode="&#xf0079;" 
d="M910 734q48 0 64 -21t16 -59v-448q0 -45 -19 -72t-69 -27h-758q-24 0 -40 8.5t-26 22.5t-14.5 31t-4.5 37v448q0 37 18 58.5t61 21.5h772zM565 139q13 0 20 6.5t7 14.5q0 9 -5 15t-20 6h-91q-11 0 -16.5 -6t-5.5 -15q0 -8 5.5 -14.5t16.5 -6.5h89zM910 653l-772 1v-443
h772v442zM537 468q0 -5 -4 -8.5t-9 -3.5t-8 3.5t-3 8.5v55q0 5 3 9.5t8 4.5t9 -4t4 -9v-56zM630 439q-2 -4 -8 -6.5t-10 0.5q-9 7 -3 17l32 45q3 4 8.5 5.5t9.5 -0.5q5 -3 4.5 -9.5t-3.5 -9.5zM383 479q-2 4 -2.5 10t4.5 9q4 2 9 0t7 -5l31 -43q2 -4 1.5 -9t-4.5 -8
q-9 -6 -16 3zM375 367q5 0 8.5 -4t3.5 -9t-3.5 -8t-8.5 -3h-57q-4 0 -7.5 3t-3.5 8t3.5 9t7.5 4h57zM723 367q11 0 11 -13q0 -5 -3.5 -8t-7.5 -3h-55q-11 0 -11 11q0 13 11 13h55z" />
    <glyph glyph-name="uF007C" unicode="&#xf007c;" horiz-adv-x="1034" 
d="M819 407q44 0 83 -16.5t68 -46t45.5 -68t16.5 -82.5t-16.5 -83t-45.5 -67.5t-68 -45t-82.5 -16.5t-82 16.5t-67.5 45t-45.5 67.5t-16.5 83q0 29 7 54q2 7 4 13t4 13l14 44l-317 58q46 -28 74.5 -75.5t28.5 -106.5q0 -44 -16.5 -83t-46 -67.5t-68 -45t-82 -16.5t-82 16.5
t-68 45t-46 67.5t-16.5 83t16.5 82.5t46 68t68 46t81.5 16.5q5 0 9 -0.5t8 -0.5q18 57 35.5 117.5t32 112t25.5 89t15 50.5q6 21 21 30t30 6.5t25.5 -13t6.5 -28.5q-1 -6 -5 -21t-11 -37l80 -1l-1 -34l-88 1q-12 -41 -26.5 -92t-31.5 -105l340 -49l33 100h-103q-7 11 -10 22
q-2 9 -1 16.5t12 12.5q11 4 37.5 9.5t57 8t57 1.5t37.5 -9t12 -18.5t-2 -19.5q-4 -11 -12 -23h-20l-44 -125h87h3zM360 195q0 41 -19 75.5t-53 54.5q-18 -62 -31 -105.5t-17 -55.5q-6 -17 -21.5 -23t-30.5 -3t-24.5 13.5t-3.5 27.5q4 11 17.5 58t32.5 111h-2
q-33 0 -60.5 -12t-48 -32.5t-32.5 -48.5t-12 -60t12 -59.5t32.5 -48.5t48 -33.5t60 -12.5t60 12.5t48 33.5t32.5 48.5t12 59.5zM817 41q32 0 59.5 12.5t48.5 33.5t33 48.5t12 59.5t-12 60t-33 48.5t-48.5 32.5t-59.5 12h-6q-47 -2 -83 -27.5t-53 -65.5l-6 -18q-6 -20 -6 -42
q0 -32 12.5 -59.5t33.5 -48.5t48.5 -33.5t59.5 -12.5zM543.5 286q25.5 0 43.5 -18t18 -43.5t-18 -43.5t-43.5 -18t-43 18t-17.5 43.5t17.5 43.5t43 18z" />
    <glyph glyph-name="uF008A" unicode="&#xf008a;" 
d="M642 692q17 32 28.5 47t17.5 20t17 2t17 -15.5t5 -34.5t-7 -63q-3 -20 -14.5 -46t-24.5 -51t-26 -46.5t-20 -32.5q-8 -11 -24 -32l-30 -41q-19 -23 -38 -49q11 -18 22 -35l18 -28q9 -14 14 -22q16 -26 47.5 -52t62.5 -41q15 -8 44.5 -17.5t58.5 -28.5t50 -52t18 -89
q-2 -45 -20.5 -77.5t-46.5 -52.5t-62 -27.5t-67.5 -3t-63 22t-48.5 47.5q-18 29 -24.5 57t-6.5 57t4.5 58.5t9.5 60.5q3 17 2.5 29t-3 20.5t-6.5 14.5l-8 13q-4 6 -12.5 17.5t-16.5 23.5q-10 13 -22 27l-16 -22q-8 -10 -17 -22.5t-17 -23.5q-17 -24 -18.5 -39t3.5 -35
q3 -10 7.5 -37t3 -62.5t-12 -74.5t-39.5 -74q-25 -29 -56.5 -43.5t-64 -15.5t-63.5 10t-55.5 31.5t-40 50.5t-16.5 66q-2 54 18.5 89t50 57.5t62 35.5t54.5 21t37 16t25.5 15.5t17.5 16t15.5 17.5t19 25t22.5 32q12 19 25 40q-8 11 -19 26q-10 12 -23.5 29t-30.5 37
q-16 22 -33.5 51t-32 57.5t-26 53.5t-15.5 36t-8 29t-5 35.5t2 32t12 21.5q9 5 15.5 4.5t12 -5t10 -12.5t11.5 -18q3 -5 13 -20t23.5 -36t30.5 -46l32 -52q39 -60 87 -135q36 62 68 114l27 45q13 22 25 41.5t20.5 34.5t13.5 23zM255 77q-38 0 -64 -26t-26 -63t26 -63.5
t64 -26.5q37 0 63 26.5t26 63.5t-26 63t-63 26zM711 77q-37 0 -63.5 -26t-26.5 -63q0 -19 7 -35.5t19 -28.5t28.5 -19t35.5 -7q37 0 63 26.5t26 63.5t-26 63t-63 26z" />
    <glyph glyph-name="uF0090" unicode="&#xf0090;" 
d="M544 812q23 0 44 -13t28 -36t2 -44t-17 -34q-13 -12 -15 -22t-1 -23q1 -9 16.5 -21t41.5 -21q27 -9 41 -20.5t23 -34.5q5 -11 12.5 -30t16 -41t15.5 -45t12 -41q4 -18 6.5 -35.5t-0.5 -32.5t-12 -26t-25 -17q-12 -4 -17.5 -1t-7.5 9.5t-2.5 15t-1.5 16.5q-2 16 -10.5 33
t-19.5 47q-5 14 -8 17.5t-4.5 1t-2 -8t-0.5 -9.5q0 -7 2.5 -27t6.5 -50t-0.5 -45.5t-4.5 -26.5t2 -29l4 -37q1 -9 1 -26.5t-0.5 -38t-1 -41.5t-0.5 -36.5t1 -42.5t2 -56t2 -54.5t1 -35.5q1 -11 -1.5 -14.5t-6.5 -4.5t-10 1q1 -2 1 -5q0 -6 1 -9q2 -13 -7.5 -22.5t-23.5 -6.5
q-11 2 -16.5 8.5t-7.5 14.5q-3 9 -2 19l-11 2q-5 2 -8 19q0 4 -1 17t-1.5 29.5t-1.5 33.5t-2 29t-3 33.5t-4 44.5t-4 44.5t-2 33.5q-1 9 -3 22t-4 25.5t-5 21.5t-5 9t-5 -8.5t-6 -20.5t-5 -26t-2 -24q0 -12 -1.5 -32t-4 -43t-4.5 -44t-3 -35t-2 -30.5t-2 -32.5t-2 -30
t-1 -21q0 -8 -2.5 -11t-5.5 -5q-4 -2 -8 -1v-11q0 -5 -1 -9.5t-3 -7.5q-5 -6 -17.5 -12t-25.5 4q-5 5 -7 11.5t-2 12.5q0 7 2 15h-5q-9 0 -12.5 3.5t-4.5 9t0 12t1 12.5q1 7 2 28.5t2 47t2 50.5t1 39v32q0 17 -0.5 35t-0.5 36v32v46q0 16 2 27q4 11 0.5 24.5t-3.5 30.5
q-1 17 4.5 39t6.5 54q0 15 -2 18.5t-5.5 0.5t-7 -9.5t-5.5 -10.5q-2 -5 -6 -16t-8 -22.5t-6.5 -21.5t-2.5 -13t0.5 -11t-1 -16t-6.5 -13.5t-15 -5.5q-20 1 -35.5 17.5t-13.5 54.5q1 19 10.5 52t21.5 67t24 62t18 40q13 21 32 26.5t33 10.5t29.5 14.5t17.5 24.5q1 12 0 21
t-9 18q-14 13 -19 33t-1 40q6 33 27 46t42 13z" />
    <glyph glyph-name="uF0091" unicode="&#xf0091;" 
d="M672 22q0 -11 -7 -20t-19 -9l-244 1q-11 -1 -17.5 9t-6.5 19t6 19t18 10h76v65h-341q-34 0 -55 19t-21 51v509q0 33 20 49.5t53 16.5h756q33 0 52.5 -18t19.5 -48v-509q0 -31 -18 -49t-54 -18h-319v-69h74q11 0 19 -8.5t8 -19.5zM891 648h-768v-359h768v359zM566 246h-87
v-78h87v78z" />
    <glyph glyph-name="uF0092" unicode="&#xf0092;" 
d="M678 317q0 -28 -11 -53t-29 -43.5t-43 -29.5t-53.5 -11t-53 11t-43 29.5t-29 43.5t-10.5 53t10.5 53t29 43.5t43 29.5t53 11t53.5 -11t43 -29.5t29 -43.5t11 -53zM171 45q-29 0 -51.5 5t-37.5 17.5t-23.5 33.5t-8.5 53v346q0 57 27 79.5t86 22.5h172q16 0 27 6t17.5 16.5
t11.5 24t11 28.5q11 26 36.5 45.5t58.5 19.5h95q38 0 62 -21t32 -44q11 -31 29.5 -53t39.5 -22h130q45 1 71.5 -24.5t26.5 -74.5v-351q0 -53 -27.5 -80t-73.5 -27h-711zM540 531q-45 0 -84 -16.5t-68 -46t-45.5 -68.5t-16.5 -83q0 -45 16.5 -83.5t45.5 -67.5t68 -46t84 -17
q44 0 83 17t67.5 46t45.5 67.5t17 83.5q0 44 -17 83t-45.5 68.5t-67.5 46t-83 16.5zM611 642q0 16 -1.5 25.5t-20.5 9.5h-85q-20 1 -21.5 -8.5t-1.5 -26.5q-1 -19 2 -27.5t21 -8.5h85q19 0 20.5 9.5t1.5 26.5z" />
    <glyph glyph-name="uF0096" unicode="&#xf0096;" 
d="M208 173q0 -40 -23 -59.5t-56 -19.5q-36 0 -58 19t-22 64v393q-1 33 22 52.5t58 19.5q37 0 58 -22t21 -52v-395zM265 100l-1 538h129q17 0 28.5 8.5t20.5 22.5t15 30t12 30q10 25 25.5 42.5t47.5 17.5h107q19 0 31 -5t21 -14t15 -21t11 -24q6 -14 11.5 -29t12.5 -27.5
t15.5 -20.5t20.5 -8h86q53 -1 79.5 -29.5t26.5 -80.5v-326q0 -54 -25.5 -79t-74.5 -25h-614zM598 547q-40 0 -74.5 -15t-60 -40.5t-40 -60.5t-14.5 -74q0 -40 14.5 -74t40 -59.5t60 -40.5t74.5 -15q39 0 74 15t60.5 40.5t40 59.5t14.5 74q0 39 -14.5 74t-40 60.5t-60.5 40.5
t-74 15zM715 358.5q0 -24.5 -9.5 -45.5t-25 -37t-36.5 -25t-46 -9t-46.5 9t-37 25t-25 37t-9.5 45.5t9.5 45.5t25 37t37 25t46.5 9t46 -9t36.5 -25t25 -37t9.5 -45.5z" />
    <glyph glyph-name="uF0099" unicode="&#xf0099;" 
d="M908 772q35 0 52 -22.5t16 -47.5v-44v-92q0 -55 0.5 -118t0.5 -118v-96v-47q0 -32 -23 -48t-51 -17h-24h-43h-56h-61h-162v-74h77q12 0 19 -7t6 -15q0 -11 -7 -17t-18 -6h-247q-11 0 -17 7t-6 15.5t5 15t18 6.5h78v74h-161h-61h-57h-44h-24q-33 0 -54 23t-21 60v487
q0 37 22.5 59t57.5 22h785zM893 690h-768v-476h768v476z" />
    <glyph glyph-name="uF00A1" unicode="&#xf00a1;" 
d="M948 189h-695q-11 0 -23 -6t-22.5 -18.5t-17 -29t-6.5 -37.5t5.5 -39t14.5 -32t22 -22t28 -8h694q-12 12 -21 27q-8 13 -14.5 31t-6.5 41q0 26 6.5 43t14.5 28q9 13 21 22zM948 -86q0 -17 -22 -17h-734q-34 0 -57.5 14.5t-38 39t-20.5 58.5t-6 73v582q0 78 41.5 112.5
t117.5 34.5h34h68h94q51 0 104.5 0.5t104.5 0.5h95h70h35q28 0 49.5 -11.5t35.5 -32t21.5 -48.5t7.5 -61v-406q-192 0 -346 1h-128q-64 0 -115 0.5t-84 0.5h-37q-21 0 -41 -12.5t-36 -34t-26.5 -50.5t-10.5 -60q0 -38 11 -68.5t28 -51.5t37.5 -32.5t40.5 -11.5h686
q8 0 14.5 -4.5t6.5 -15.5zM515 812v-389l77 109l77 -109v389h-154z" />
    <glyph glyph-name="uF00A2" unicode="&#xf00a2;" 
d="M820 15q0 -25 -10 -47t-27.5 -38.5t-41 -26t-51.5 -9.5h-357q-28 0 -51.5 9.5t-41 26t-27.5 38.5t-10 47v675q0 25 10 47.5t27.5 39t41 26t51.5 9.5h357q28 0 51.5 -9.5t41 -26t27.5 -39t10 -47.5v-675zM739 642h-456v-578h456v578zM511 36q-21 0 -36.5 -15t-15.5 -37
t15.5 -37.5t36.5 -15.5q22 0 37 15.5t15 37.5t-15 37t-37 15zM592 727q0 8 -5 12.5t-12 4.5h-128q-5 0 -10.5 -4.5t-5.5 -12.5t5 -12.5t11 -4.5h128q7 0 12 4.5t5 12.5z" />
    <glyph glyph-name="uF00A7" unicode="&#xf00a7;" 
d="M877 264h3h-732v434q0 43 21.5 66t66.5 23h558q46 0 65 -26t18 -67v-430zM801 716h-580v-324l580 -1v325zM563 328q0 14 -19 16h-63q-19 0 -19 -16q0 -5 5 -10.5t13 -6.5l62 1q9 0 15 5.5t6 10.5zM859 206q11 0 15.5 -7.5t12.5 -20.5q4 -7 15 -25.5t24 -39.5t24.5 -39.5
t15.5 -24.5q8 -13 13.5 -25t-7.5 -28q-27 -32 -46.5 -39t-29.5 -7h-39h-89h-122h-138h-137q-68 0 -121.5 0.5t-87.5 0.5h-39q-8 0 -17 4t-18 10.5t-17 14.5t-14 15q-7 9 -9 16t-0.5 13t5.5 11t8 12q5 6 14.5 22t20.5 35l25 39q11 20 19 33t14 20t12 9t13 1.5t19 -0.5h661z
M909 16.5q0 7.5 -6 12t-13 4.5h-748q-7 0 -14 -4.5t-7 -12t6 -12.5t13 -5h749q7 0 13.5 5t6.5 12.5z" />
    <glyph glyph-name="uF00A8" unicode="&#xf00a8;" 
d="M288 549q-28 -1 -55 -1h-85q-18 0 -37 -6t-33.5 -19t-23.5 -33t-9 -47v-77h934v42q0 16 -0.5 30.5t-0.5 18.5q0 13 -5 29.5t-17.5 30t-32.5 23t-51 9.5h-136v-99h-448v99zM978 310v-53q0 -24 0.5 -53.5t0.5 -59t-11 -48.5t-26.5 -31t-33.5 -16.5t-32 -4.5
q-15 -1 -31 -0.5t-30 0.5h-33l-46 131h-449l-45 -131h-30h-35q-20 0 -46 1q-26 0 -42 9.5t-26 23.5t-14 30.5t-4 30.5v171h933zM167 246q-12 0 -21.5 -9t-9.5 -22t9.5 -22t21.5 -9q13 0 22.5 9t9.5 22t-9.5 22t-22.5 9zM324 119q-9 -27 -15 -49q-5 -20 -10.5 -38.5
t-7.5 -25.5t-3 -15t1 -15t9.5 -11t22.5 -4h37h69h83h82h65h37q24 0 35 12.5t2 38.5q-5 14 -9.5 31.5t-9.5 35.5q-5 19 -12 40h-376zM344 503v233q0 11 2.5 23.5t10.5 22.5t21 16t35 6h192q32 0 53 -15t21 -54v-232h-335z" />
    <glyph glyph-name="uF00AE" unicode="&#xf00ae;" horiz-adv-x="1220" 
d="M829.5 692q79.5 1 150.5 -28.5t123.5 -81.5t84 -122t32.5 -150q1 -76 -26.5 -143t-75 -118.5t-112.5 -85t-140 -41.5q-39 -5 -90.5 -7.5t-133.5 5.5q-46 4 -80 10t-56 12.5t-31 11t-5 5.5q50 9 80 26q17 10 14 28t-17 33q-44 49 -72.5 114.5t-29.5 142.5q-1 80 29 150.5
t82 123.5t123 83.5t150.5 31.5zM705.5 235q27.5 0 46.5 19.5t19 46.5t-19 46.5t-46.5 19.5t-46.5 -19.5t-19 -46.5t19 -46.5t46.5 -19.5zM960.5 237q26.5 0 45.5 18t19 45t-19 46t-45.5 19t-45 -19t-18.5 -46t18.5 -45t45 -18zM382 45q0 -37 -14 -69t-35 -57
q-7 -8 -8.5 -16.5t6.5 -13.5q4 -2 10 -7.5t12.5 -11t14 -10t13.5 -5.5q-24 -6 -46 -3.5t-61 2.5q-20 0 -34.5 0.5t-25 1t-19.5 1.5l-19 2q-37 4 -68.5 19.5t-55 41.5t-37 58.5t-13.5 70.5q0 39 15.5 73.5t41.5 60t61 40t75 14.5q38 0 72.5 -15.5t60 -41.5t40 -61t14.5 -74z
" />
    <glyph glyph-name="uF00AF" unicode="&#xf00af;" 
d="M825 746q28 0 53 -10.5t43.5 -29t29.5 -43t11 -53.5v-622q0 -29 -11 -53.5t-29.5 -43t-43.5 -29.5t-53 -11h-689q-27 0 -52.5 11t-43.5 29.5t-29 43t-11 53.5v622q0 29 11 53.5t29 43t43.5 29t52.5 10.5h689zM322 250q11 12 23.5 27t25.5 30.5t24 29.5t19 25l353 3v60
h-333l11 28l-61 18v17h126l-3 -60h68l2 60l193 3v64h-193l2 66l-73 2l4 -68h-128l2 63h-69l4 -63h-192v-66l192 -1l-3 -63h-188v-60h203q-39 -46 -76 -84q-32 -34 -67 -67t-62 -48q11 -12 19.5 -26t16.5 -28q27 20 48.5 38t45.5 40v-211l63 -2zM771 300l-319 -2v-64l162 -1
l-53 -33v-30l-177 3v-68l189 -1v-41q0 -2 -7.5 -11.5t-21.5 -9.5h-93l-2 -66q14 -1 32 -1h83q31 0 54 19t23 48v62l129 1v67l-112 -2v14l113 53v63z" />
    <glyph glyph-name="uF00B0" unicode="&#xf00b0;" 
d="M582 389q-47 -19 -85.5 -51t-66.5 -72.5t-43.5 -89t-15.5 -102.5q0 -47 12.5 -90t34.5 -81h-25q-26 0 -61 2t-72 5t-74 7t-66.5 8.5t-50.5 9t-27 9.5q-10 7 -15 44.5t5 96.5q3 23 14.5 37.5t27.5 25t36 16.5t41 12t40.5 13t35.5 17q19 12 29.5 23t15 22t4.5 23t-1 26
q-1 21 -14 33t-28 25q-8 6 -13.5 17.5t-10.5 23.5q-4 13 -9 28q-6 2 -13 6q-5 5 -11.5 13t-11 23.5t-3.5 28t6 22.5q3 10 11 19q0 35 4 69q4 29 13 62.5t28 59.5q18 26 39 42t43.5 25t44.5 12t43 3q26 0 52 -6t48.5 -16t40.5 -22.5t28 -25.5q23 -29 34 -64t16 -66
q4 -37 4 -74q6 -4 10 -11t6 -17t0 -24q-1 -20 -7 -31.5t-13 -17.5q-9 -7 -18 -10q-2 -6 -3 -12l-5 -13q-2 -6 -4 -13zM711 360q59 0 111 -23t90.5 -61.5t61.5 -91t23 -111t-23 -111t-61.5 -91.5t-90.5 -61t-111 -22q-60 0 -112 22t-90.5 61t-61 91.5t-22.5 111t22.5 111
t61 91t90.5 61.5t112 23zM878 130q5 18 -5 33t-27.5 21t-34.5 0.5t-25 -27.5q-5 -16 -9 -29t-8 -27.5t-10 -31t-15 -38.5q-9 -24 -26 -22.5t-26 19.5q-10 18 -18.5 39t-16.5 41t-14.5 36t-11.5 26q-7 15 -23.5 17t-32.5 -5t-26.5 -21.5t-3.5 -31.5q7 -18 15 -41t17 -46.5
t17 -46t15 -38.5q13 -35 41 -52t58 -18t58 13.5t40 43.5q10 23 20.5 49t20 50.5t18 47t13.5 39.5z" />
    <glyph glyph-name="uF00B1" unicode="&#xf00b1;" 
d="M834 -154l-322 192l-319 -190l-2 836q0 27 10.5 50t28 40.5t41 27.5t50.5 10h384q26 0 49 -10t40.5 -27.5t28 -40.5t10.5 -50z" />
    <glyph glyph-name="uF00B2" unicode="&#xf00b2;" horiz-adv-x="1028" 
d="M34 169q-32 35 -36.5 63.5t24.5 58.5q4 4 13.5 12t19.5 17t19 17t14 12q26 24 51.5 20.5t44.5 -24.5q10 -11 27 -28t34.5 -35.5t33.5 -35t26 -26.5q20 -20 47 -15.5t51 27.5q22 23 54.5 57t70.5 73t79 82t80 83.5t73.5 76.5t61.5 63q14 14 29 26.5t30.5 19t31 5.5
t32.5 -11q2 -3 11.5 -11.5t20.5 -18.5l21 -21l11 -12q14 -14 15.5 -30t-5 -32t-17 -30t-20.5 -25q-32 -31 -79 -79t-100.5 -102.5t-111 -113t-110 -112.5t-98 -101t-76.5 -76q-12 -13 -31 -19.5t-39.5 -7t-40.5 4.5t-33 18q-28 24 -59 55t-62 62.5t-58.5 60.5t-49.5 52z" />
    <glyph glyph-name="uF00B3" unicode="&#xf00b3;" 
d="M887 66q29 -31 43 -56.5t-4 -58.5q-4 -6 -11.5 -15t-15 -17t-15 -14.5t-13.5 -10.5q-25 -15 -60 -8t-62 35l-43 43l-58 57l-67 68l-74 74l-131 -131q-61 -61 -98 -100q-39 -39 -77.5 -48t-68.5 18l-7 7l-11 11l-12 11q-6 7 -7 9q-11 14 -13 29t2.5 29t14 27.5t20.5 24.5
q9 8 33 31l55 57q34 33 75.5 74t86.5 86q-50 49 -94.5 93t-79.5 79t-57.5 57t-27.5 27q-27 27 -27.5 53t17.5 52q9 11 24 24.5t21 17.5q31 21 55.5 18.5t49.5 -28.5l32 -32q23 -23 58 -57t78.5 -76.5t90.5 -88.5q39 39 76.5 76t69.5 69l58 58q26 26 44 43q24 24 53 31.5
t55 -13.5q1 -1 7 -5t11.5 -9t10.5 -9.5t7 -5.5q28 -27 27.5 -58t-27.5 -58q-18 -18 -45.5 -46t-60.5 -60.5t-70 -69.5l-78 -78q38 -37 74.5 -72t67.5 -66t56 -56.5t42 -41.5z" />
    <glyph glyph-name="uF00B4" unicode="&#xf00b4;" 
d="M512 747q92 0 173.5 -34.5t142.5 -95.5t95.5 -142.5t34.5 -173.5t-34.5 -173.5t-95.5 -142.5t-142.5 -95.5t-173.5 -34.5t-174 34.5t-142.5 95.5t-95.5 142.5t-35 173.5t35 173.5t95.5 142.5t142.5 95.5t174 34.5zM708 238q29 0 49 18t20 47q0 30 -20 46.5t-49 16.5h-393
q-29 0 -49 -16.5t-20 -46.5q0 -29 20 -47t49 -18h393z" />
    <glyph glyph-name="uF00B5" unicode="&#xf00b5;" 
d="M660 -60q7 0 -3 -15.5t-30 -34t-47 -34t-58 -15.5q-27 0 -53 15.5t-45.5 34t-29.5 34t-6 15.5h272zM914 27q8 -10 7.5 -18.5t-5 -14.5t-10.5 -9.5t-12 -3.5h-748q-14 0 -20.5 11.5t4.5 28.5q17 31 41 69t45 81.5t36 92t15 102.5q0 51 14.5 92t37.5 71.5t53 52t63 32.5
q-16 27 -16 56q0 42 28.5 70.5t70.5 28.5t70.5 -28.5t28.5 -70.5q0 -15 -4 -28.5t-11 -25.5q35 -11 66 -32.5t54 -53t37 -72.5t14 -91q0 -52 15.5 -101.5t37 -94t45.5 -81.5t43 -63zM478 670q0 -17 11.5 -28.5t27.5 -11.5h2q17 1 28 12t11 28t-11 28.5t-28.5 11.5t-29 -11.5
t-11.5 -28.5z" />
    <glyph glyph-name="uF00B6" unicode="&#xf00b6;" 
d="M642 -83v-11q0 -5 0.5 -11t0.5 -12q-1 -20 -10.5 -43t-37.5 -33q-11 -4 -28.5 -11.5t-53.5 -7.5q-30 0 -50 7t-31 9q-15 3 -23.5 13t-13 22t-5.5 24.5t-1 23.5v31zM863 582q26 -62 30 -117t-6 -101t-29.5 -82.5t-40 -64t-39 -45.5t-25.5 -24q-10 -9 -18.5 -13.5
t-15.5 -7.5t-13 -7.5t-12 -13.5q-13 -19 -20 -37.5t-13 -35.5q-5 -14 -11 -23t-13 -17q-8 -8 -16 -13h-224q-8 5 -15 13t-14.5 19t-12.5 28q-10 30 -24.5 47.5t-38.5 35.5q-16 12 -37 32t-41 47.5t-38.5 61.5t-29.5 75t-13 87t9 97q17 82 60 137t95.5 89t109 48.5
t102.5 14.5q48 0 99.5 -13t100 -41t88.5 -71.5t66 -104.5zM760 375q44 178 -114 271q-26 17 -61 26t-72 9t-73 -9t-64 -29q-69 -48 -93.5 -103.5t-22.5 -117.5q1 -35 11.5 -62.5t25.5 -50t30.5 -39t27.5 -29.5q26 -27 45 -47t31 -50q11 -30 35 -36.5t44 -6.5q26 0 50.5 12
t34.5 36q5 14 21 34.5t48 57.5q16 19 30.5 33t27.5 28.5t22.5 31t15.5 41.5z" />
    <glyph glyph-name="uF00B7" unicode="&#xf00b7;" horiz-adv-x="1044" 
d="M595 695l21 -35q18 -30 45 -76t61 -104.5t69.5 -119.5t71 -121t64.5 -110t50 -86t30 -49q15 -26 18.5 -51.5t-3 -46t-23.5 -33.5t-41 -12q-13 0 -53 1t-96 1h-128h-144q-74 0 -146.5 -1t-135.5 -1h-110h-69q-39 0 -60 13.5t-28 34.5t-1.5 45.5t19.5 46.5q7 11 28 46
t51 84.5t65.5 109.5t72.5 122t72 120t62.5 105.5t46.5 77.5l21 36q14 23 37 34.5t48 11.5t48 -10.5t37 -32.5zM569 495q0 12 -5.5 22.5t-14.5 19.5t-21 14t-24 5q-24 0 -44 -18.5t-20 -41.5v-269q0 -23 20 -42t44 -19t44.5 18t20.5 41v270zM504 105q-27 0 -46 -18t-19 -45
t19 -46t46 -19t45 19t18 46t-18 45t-45 18z" />
    <glyph glyph-name="uF00BA" unicode="&#xf00ba;" 
d="M786 566q-15 -25 -30 -41.5t-27 -25.5q11 -18 4 -40q-3 -9 -8.5 -24.5t-14.5 -36.5h19q17 0 28 -6.5t17 -17t7 -24t0 -25.5q-1 -9 -6.5 -46t-12.5 -89t-14.5 -110.5t-15.5 -109t-13.5 -86t-7.5 -40.5q-3 -8 -6 -17.5t-8.5 -18.5t-16 -14.5t-29.5 -5.5h-282
q-9 0 -23.5 2.5t-29 8.5t-25 17t-12.5 28q-2 14 -7 47t-11.5 77t-14 94.5t-14 99.5t-12 91.5t-7.5 71.5q-1 25 17 47.5t55 25.5q-8 41 -14.5 71.5t-8.5 41.5q-4 18 -2 28.5t7.5 16.5t13 9t15 5t20 4t26 5t26 5t21.5 4q41 6 48 -37q1 -4 3 -18t5 -34t7 -46t7 -55h21
q4 35 9 76l8 82q4 41 8 81t8 71.5t7 53.5t4 28q4 13 13 18.5t18.5 3t15.5 -10.5t4 -22q-1 -6 -3 -26.5t-4.5 -51t-6.5 -68t-8 -78.5t-7.5 -81t-6.5 -76h70q10 31 20.5 59t17.5 44q9 23 30 26q-1 2 -1.5 3.5t-0.5 4.5q-8 29 -4 50.5t14 43.5q6 11 17.5 19t23 15t20.5 15
t11 20.5t2.5 23.5t1.5 19q1 9 1 17q14 -38 24 -74q7 -31 9.5 -63.5t-9.5 -54.5z" />
    <glyph glyph-name="uF00BB" unicode="&#xf00bb;" horiz-adv-x="1154" 
d="M1016 747q62 0 99.5 -31.5t37.5 -96.5v-568q0 -27 -10 -52t-28 -43t-42 -29t-51 -11h-893q-27 0 -50.5 10t-41 27t-27.5 39.5t-10 48.5v581q0 55 34 90t95 35h887zM288 558q-20 0 -37.5 -7t-30.5 -20t-21 -31t-8 -38.5t8 -38t21 -30.5t30.5 -20.5t37.5 -7.5q21 0 39 7.5
t31 20.5t20.5 30.5t7.5 38.5q0 42 -27.5 69t-70.5 27zM449 204q0 19 -8 37t-20.5 31t-30.5 20.5t-38 7.5h-128q-40 0 -67.5 -28t-27.5 -68v-4v-93h320v93v4zM924 102q20 0 30 10.5t10 25t-11.5 25t-31.5 10.5h-306q-20 0 -30.5 -10.5t-10.5 -25t10.5 -25t29.5 -10.5h310z
M925 234q20 0 29.5 10.5t9.5 24.5q0 16 -9 26t-29 10h-314q-20 0 -29.5 -10t-9.5 -26q0 -14 9 -24.5t29 -10.5h314zM926 365q15 0 26.5 10t11.5 24.5t-11.5 23t-26.5 8.5h-208q-16 0 -26.5 -8.5t-10.5 -23t10.5 -24.5t26.5 -10h208z" />
    <glyph glyph-name="uF00BC" unicode="&#xf00bc;" 
d="M883 146q33 -21 53 -56.5t20 -77.5q0 -34 -12.5 -62.5t-34 -50t-50.5 -34t-63 -12.5q-42 0 -77 20t-56 53q-4 4 -7 8.5t-8 9.5q-17 22 -21 54.5t-3 67.5t2 69t-5 60q-11 20 -25 44t-31 48q-3 4 -5.5 7t-4.5 6q-20 -23 -38 -46.5t-37 -48.5q-5 -6 -9 -12t-9 -12
q-9 -19 -9 -33.5t3.5 -28t8 -27.5t5 -33t-5 -44.5t-21.5 -60.5q-17 -46 -57.5 -74.5t-92.5 -28.5q-33 0 -62 12.5t-50.5 34.5t-34.5 50.5t-13 62.5q0 36 15.5 67.5t41.5 53.5q25 27 53 44.5t55.5 32.5t52 30.5t43.5 36.5q4 5 7.5 10t7.5 10l1 1q4 8 11 15q14 19 28 38.5
t30 39.5q-27 28 -45.5 45t-35.5 40q-36 47 -60 97.5t-37.5 96t-14 81.5t12.5 53q7 5 20.5 7.5t21.5 -9.5q18 -27 41.5 -62.5t50.5 -76.5t56.5 -85.5t58.5 -87.5q7 8 12.5 16.5t11.5 16.5q27 39 52.5 81t47 80.5t38.5 69.5t26 47q7 11 24 11.5t29 -10.5q6 -6 11 -34.5
t-3 -74.5t-32.5 -105t-77.5 -126l-32 -40q-16 -21 -34 -41q24 -35 44.5 -66.5t37.5 -56.5q26 -27 51.5 -42t49 -25.5t43.5 -19.5t36 -24zM292.5 -62q32.5 0 55 23t22.5 55.5t-22.5 56t-55 23.5t-56 -23.5t-23.5 -56t23.5 -55.5t56 -23zM795 -62q33 0 55.5 22.5t22.5 55
t-22.5 56t-55 23.5t-56 -23.5t-23.5 -55.5q0 -16 6.5 -30.5t17 -25t25 -16.5t30.5 -6z" />
    <glyph glyph-name="uF00BD" unicode="&#xf00bd;" 
d="M815 742q28 -25 44.5 -42t25 -29t10.5 -20t2 -14v-16h-152q-10 0 -17.5 7.5t-12.5 17.5t-7.5 21t-2.5 17v127h3q8 0 16.5 -2.5t20 -9.5t28.5 -20.5t42 -36.5zM640 683q0 -21 6 -43t19.5 -40.5t34 -31t48.5 -12.5h149v-578q0 -29 -12 -52.5t-31 -40t-43 -26t-46 -9.5h-504
q-19 0 -42 11.5t-43 30t-33.5 42t-13.5 49.5v696q0 21 9.5 44t26.5 42.5t38.5 32.5t45.5 13h391v-128zM705 44q26 0 44.5 19t18.5 45.5t-18.5 45t-44.5 18.5h-384q-27 0 -45.5 -18.5t-18.5 -45t18.5 -45.5t45.5 -19h384zM768 363.5q0 26.5 -18.5 45.5t-44.5 19h-384
q-27 0 -45.5 -19t-18.5 -45.5t18.5 -45t45.5 -18.5h384q26 0 44.5 18.5t18.5 45z" />
    <glyph glyph-name="uF00BE" unicode="&#xf00be;" horiz-adv-x="1069" 
d="M746 622q-11 0 -19 7.5t-13 18t-7.5 21t-2.5 17.5v126h2q9 0 17.5 -2t20 -9.5t28.5 -21.5t42 -36q28 -25 44.5 -42t25 -28.5t10.5 -20t2 -14.5v-16h-150zM1064 141q3 -9 4 -21t-10 -23q-5 -5 -9.5 -10t-7.5 -8q-4 -4 -7 -6l-87 86q6 5 14 12t13 11q12 12 26.5 10.5
t23.5 -6.5q10 -6 22 -18.5t18 -26.5zM703 46q23 0 38 12l-198 -207h-282q-20 0 -43 11.5t-43 30t-33 42.5t-13 49v696q0 22 9.5 45.5t26.5 42t38.5 31.5t44.5 13h392v-128q0 -19 6 -41.5t19 -41.5t33 -31.5t49 -12.5h149v-339l-140 -145q11 16 11 36q0 26 -18.5 45t-45.5 19
h-383q-27 0 -45 -19t-18 -45.5t18 -44.5t45 -18h383zM320 429q-27 0 -45 -19t-18 -45.5t18 -45t45 -18.5h383q27 0 45.5 18.5t18.5 45t-18.5 45.5t-45.5 19h-383zM705 -83l13 13l26 26q15 15 33.5 34t36.5 37q44 44 100 98l85 -86l-99 -99l-36 -37l-34 -33q-14 -15 -24 -25
l-11 -11q-5 -4 -11 -8.5t-12.5 -7.5t-19 -8t-26 -9t-25.5 -7t-18 -4q-13 -2 -17 3t-2 17q1 7 4 19t7.5 25t8 24t5.5 15q6 14 16 24z" />
    <glyph glyph-name="uF00BF" unicode="&#xf00bf;" horiz-adv-x="1093" 
d="M749 622q-10 0 -18 7t-13 17.5t-7.5 21t-2.5 17.5v127h2q8 0 17 -2.5t20.5 -9.5t28.5 -21t42 -37q28 -24 44 -41.5t24.5 -29t10.5 -20t2 -14.5v-15h-150zM867 238q48 0 88.5 -17.5t71.5 -48t48.5 -71.5t17.5 -88t-17.5 -88t-48.5 -71.5t-71.5 -48t-88.5 -17.5
q-46 0 -86.5 17.5t-71.5 48t-49 71.5t-18 88t18 88t49 71.5t71.5 48t86.5 17.5zM995 -23q10 0 17 10.5t7 24.5t-7 24.5t-17 10.5h-97v90q0 8 -8.5 14t-24 6t-23 -6t-7.5 -14v-113q-2 -8 -2 -12q0 -14 7 -24.5t16 -10.5h139zM576 44q-1 -7 -1 -15v-15q0 -46 13.5 -87
t36.5 -77h-362q-20 0 -43 11.5t-42.5 30t-33 42t-13.5 48.5v698q0 22 10 45t26.5 42t38 32t45.5 13h391v-128q0 -20 6.5 -42t19.5 -41.5t33.5 -32t48.5 -12.5h149v-254q-8 2 -17 2h-19q-76 0 -139.5 -36t-102.5 -96h-298q-26 0 -45 -18.5t-19 -45t19 -45.5t45 -19h253z
M323 428q-26 0 -45 -18.5t-19 -45.5t19 -45t45 -18h384q26 0 44.5 18t18.5 45t-18.5 45.5t-44.5 18.5h-384z" />
    <glyph glyph-name="uF00C0" unicode="&#xf00c0;" horiz-adv-x="1094" 
d="M749 622q-10 0 -18 7.5t-13 18t-7.5 21t-2.5 17.5v126h2q9 0 17.5 -2t20 -9.5t28.5 -21.5t42 -37q28 -24 44.5 -41t24.5 -28.5t10.5 -20t2.5 -14.5v-16h-151zM867 239q48 0 88.5 -18t71.5 -48.5t49 -71.5t18 -87q0 -47 -18 -88t-49 -71.5t-71.5 -48.5t-88.5 -18
q-46 0 -86.5 18t-71.5 48.5t-49 71.5t-18 88q0 46 18 87t49 71.5t71.5 48.5t86.5 18zM912 13l68 68q9 9 9 22t-9 22.5t-22.5 9.5t-22.5 -9l-68 -68l-68 68q-9 9 -22.5 9t-22.5 -9.5t-9 -22.5t9 -22l67 -68l-67 -68q-9 -10 -9 -23t9 -22.5t22.5 -9.5t22.5 10l68 67l68 -67
q9 -10 22.5 -10t22.5 9.5t9 22.5t-9 23zM576 45q-1 -8 -1 -15v-15q0 -46 13.5 -87.5t37.5 -76.5h-363q-20 0 -43 11.5t-42.5 30t-33 42t-13.5 48.5v697q0 22 10 45.5t27 42t38.5 31.5t45.5 13h391v-128q0 -19 6.5 -41.5t19 -41.5t33 -32t49.5 -13h149v-253q-9 1 -18 1.5
t-18 0.5q-76 0 -140 -36t-103 -96h-298q-26 0 -45 -19t-19 -45.5t19 -45t45 -18.5h253zM323 428q-26 0 -45 -18t-19 -45t19 -45.5t45 -18.5h384q26 0 45 18.5t19 45.5t-19 45t-45 18h-384z" />
    <glyph glyph-name="uF00C1" unicode="&#xf00c1;" horiz-adv-x="1026" 
d="M747 622q-11 0 -18.5 7.5t-12.5 18t-8 21t-3 16.5v127h3q9 0 17 -2.5t20 -9.5t28.5 -21t42.5 -37q28 -24 44 -41.5t25 -28.5t11 -19.5t2 -14.5v-16h-151zM765 16q-37 -8 -66 -20q-24 -11 -43.5 -30.5t-16.5 -49.5q2 -20 3 -36t2 -29h-382q-20 0 -43 11t-43 29.5t-33 42.5
t-13 49v697q0 22 9.5 45.5t26.5 42t38.5 31.5t44.5 13h392v-128q0 -20 6 -42t19.5 -41.5t34 -32t47.5 -12.5h150v-305l-42 -67l-90 106q-18 -20 -30 -39q-11 -18 -20 -38t-12 -40h-383q-27 0 -45 -19t-18 -45.5t18 -45t45 -18.5h383q24 0 39 12q5 -9 9 -17t7 -13q4 -6 6 -11
zM321 429q-27 0 -45 -19t-18 -45.5t18 -45t45 -18.5h383q27 0 46 18.5t19 45t-19 45.5t-46 19h-383zM955 -69q6 -3 18.5 -7.5t24 -12t20.5 -21.5t8 -36q-2 -28 -17 -43.5t-35.5 -20.5t-41.5 2t-32 25q-15 24 -13 47t6 48q2 15 -0.5 21t-6.5 11q-2 2 -5.5 6.5t-6.5 9.5
q-4 5 -8 12q-3 -6 -7 -10q-3 -4 -6.5 -9t-6.5 -10q-8 -9 -8.5 -15.5t1.5 -14.5q1 -4 3 -15t1 -25.5t-5.5 -30.5t-15.5 -30q-15 -18 -35.5 -22.5t-39.5 2.5t-32.5 22.5t-13.5 38.5q-1 21 7.5 35.5t20.5 23.5t25.5 15t22.5 9q18 7 25.5 12.5t13.5 13.5q3 4 7.5 11t9.5 13
q5 7 11 15q-5 4 -9 10t-9.5 13t-11.5 16q-7 8 -14.5 20t-13.5 23.5t-10.5 21.5t-5.5 15q-4 10 -6 26.5t6 21.5t11 0.5t9 -12.5q2 -4 14.5 -23t26.5 -40q17 -25 35 -55q15 25 28 46q11 18 21 35.5t14 23.5q8 13 12.5 19.5t6.5 8.5t6.5 0.5t7.5 -6.5q2 -5 1.5 -14t-2.5 -26
q-2 -8 -6.5 -18.5t-9.5 -20.5t-10.5 -19.5t-8.5 -13.5q-3 -5 -9.5 -13t-12.5 -16q-7 -11 -15 -21q5 -8 9 -14t7.5 -11.5t5.5 -9.5q6 -11 19 -21t25 -16zM774 -169q14 0 24 10t10 24.5t-10 24t-24 9.5t-24 -9.5t-10 -24t10 -24.5t24 -10zM957 -182q15 0 26 11t11 26t-11 26
t-26 11t-26 -11t-11 -26t11 -26t26 -11z" />
    <glyph glyph-name="uF00C2" unicode="&#xf00c2;" 
d="M639 620q30 0 54 -13t41.5 -32.5t26.5 -42t9 -40.5v-576q0 -30 -11.5 -53.5t-30.5 -40t-42.5 -25.5t-46.5 -9h-504q-19 0 -42 11t-43 29.5t-33 42.5t-13 49v568q0 22 10 45t26.5 42.5t38 32t44.5 12.5h516zM578 -18q27 0 46 18.5t19 45t-19 45.5t-46 19h-382
q-27 0 -46 -19t-19 -45.5t19 -45t46 -18.5h382zM578 237q27 0 46 18.5t19 45t-19 45.5t-46 19h-382q-27 0 -46 -19t-19 -45.5t19 -45t46 -18.5h382zM759 812q44 0 80.5 -26t64 -64.5t42.5 -82.5t15 -81v-542q0 -22 -12.5 -40t-31 -30.5t-40 -20t-39.5 -7.5h-4v609
q-9 71 -44.5 108.5t-94.5 48.5h-498q1 2 1 8q0 20 12 41.5t32 39t44.5 28.5t48.5 11h424z" />
    <glyph glyph-name="uF00C3" unicode="&#xf00c3;" horiz-adv-x="1025" 
d="M748 621q-10 0 -18 7.5t-13 18t-7.5 21t-2.5 17.5v126h2q8 0 16.5 -2t20.5 -9.5t29 -21.5t42 -37q28 -24 44 -41t24.5 -28.5t10.5 -20t2 -14.5v-16h-150zM511 44q0 -59 24 -109t64 -86h-337q-20 0 -43 11.5t-42.5 30t-33 42.5t-13.5 49v697q0 22 10 45.5t27 42t38.5 31.5
t45.5 13h390v-128q0 -19 6.5 -41.5t19.5 -41.5t33.5 -32t48.5 -13h149v-284q-28 16 -60 25t-67 9q-73 0 -133 -36.5t-94 -96.5h-222q-26 0 -45 -19t-19 -45.5t19 -45t45 -18.5h189zM322 427q-26 0 -45 -18t-19 -45t19 -45.5t45 -18.5h384q26 0 45 18.5t19 45.5t-19 45
t-45 18h-384zM1009 -145q14 -18 15.5 -29.5t-9.5 -24.5q-13 -14 -27 -13t-29 12l-86 84q-28 -17 -60.5 -25t-64 -5t-61.5 16t-55 39q-27 27 -41.5 63t-14.5 73t14.5 72t41.5 64q28 27 62.5 41.5t71.5 14.5t72.5 -14.5t62.5 -41.5q25 -26 38 -56.5t15.5 -63t-5 -64
t-24.5 -59.5zM767 -82q26 0 48.5 10t39.5 27t26.5 40t9.5 50q0 25 -9.5 48t-26.5 40.5t-39.5 27.5t-48.5 10t-48.5 -10t-39.5 -27.5t-27 -40.5t-10 -48q0 -27 10 -50t27 -40t39.5 -27t48.5 -10z" />
    <glyph glyph-name="uF00C4" unicode="&#xf00c4;" 
d="M512 749q93 0 176 -35.5t144.5 -96.5t97.5 -143t36 -175t-36 -175t-97.5 -143t-144.5 -96.5t-176 -35.5q-94 0 -176.5 35.5t-144 96.5t-97 143t-35.5 175t35.5 175t97 143t144 96.5t176.5 35.5zM706 239q26 0 44.5 18t18.5 45t-18.5 46t-44.5 19h-128v191q0 27 -19 46
t-46 19t-45 -19t-18 -46v-256q0 -27 18 -45t45 -18h193z" />
    <glyph glyph-name="uF00C5" unicode="&#xf00c5;" 
d="M855 427q19 -2 38.5 -10t34 -23t21.5 -37.5t2 -54.5q-2 -8 -8 -40.5t-14 -74.5t-18.5 -86.5t-19.5 -75.5q-5 -19 -15 -38.5t-25 -35.5t-36.5 -26t-51.5 -10h-567q-22 0 -45 9t-42.5 26t-31.5 41t-12 54v439q0 63 33.5 98t95.5 35h503q23 0 47 -8.5t43.5 -24t31.5 -36
t12 -43.5v-11h-53q-41 0 -95.5 0.5t-116.5 0.5t-116 0.5t-93 0.5h-47q-26 0 -41 -17t-23 -45q-8 -30 -18.5 -63t-18.5 -62q-10 -34 -21 -65q-2 -9 -2 -14q0 -17 12 -29t29 -12q32 0 43 40l55 199q133 -1 243 -1h287z" />
    <glyph glyph-name="uF00C6" unicode="&#xf00c6;" 
d="M590 288q-31 -31 -51 -68.5t-28.5 -77.5t-6 -81t16.5 -79h-388q-21 0 -44.5 8.5t-42.5 25.5t-32 41t-13 55v438q0 62 34.5 97.5t94.5 35.5h31h60h78q44 0 88.5 0.5t87.5 0.5h77h56h26q23 0 47.5 -9t43 -24.5t31 -36t12.5 -43.5v-12q-54 0 -126 -0.5t-144 -0.5h-141h-110
q-26 0 -41 -15.5t-23 -42.5q-8 -30 -18 -64.5t-19 -63.5l-20 -70q-4 -14 6.5 -30t31.5 -16q16 0 27 9t16 25l54 204l534 -1q19 -3 38 -11t33 -23t20.5 -37.5t1.5 -53.5q0 -2 -0.5 -4t-0.5 -5q-77 25 -157 7t-140 -78zM801 298q46 0 86 -17.5t70 -47.5t47.5 -70t17.5 -86
t-17.5 -86t-47.5 -70.5t-70 -47.5t-86 -17t-86 17t-70.5 47.5t-47.5 70.5t-17 86t17 86t47.5 70t70.5 47.5t86 17.5zM930 48q13 0 22.5 9.5t9.5 22.5t-9.5 22.5t-22.5 9.5h-96v96q0 13 -9.5 22.5t-22.5 9.5q-15 0 -24 -9.5t-9 -22.5v-96h-95q-15 0 -24 -9.5t-9 -22.5
t9 -22.5t24 -9.5h95v-96q0 -13 9 -22.5t24 -9.5q13 0 22.5 9.5t9.5 22.5v96h96z" />
    <glyph glyph-name="uF00C7" unicode="&#xf00c7;" 
d="M798 370q-61 0 -113.5 -22.5t-91.5 -62t-62 -92.5t-23 -113q0 -50 17 -97h-392q-21 0 -44 9t-42.5 26t-32 41t-12.5 54v42v82q0 47 -0.5 100.5t-0.5 99.5v79v36q0 61 34.5 97t94.5 36h504q23 0 47.5 -8.5t43 -24t31 -36t12.5 -44.5v-13h-517q-51 0 -68 -57
q-8 -30 -18 -63.5t-19 -61.5q-10 -34 -20 -66q-2 -8 -2 -14q0 -16 11 -28t28.5 -12t27 12.5t14.5 27.5l56 197h542q18 -4 35.5 -12.5t30.5 -23.5t18.5 -37t0.5 -51q0 -2 -0.5 -5.5t-1.5 -8.5q-40 14 -88 14zM803 301q46 0 86 -17.5t70 -47.5t47.5 -70t17.5 -86t-17.5 -86
t-47.5 -70.5t-70 -47.5t-86 -17t-86 17t-70.5 47.5t-47.5 70.5t-17 86t17 86t47.5 70t70.5 47.5t86 17.5zM846 83l67 69q10 9 10 22t-9.5 22.5t-22.5 9.5t-23 -9l-68 -69l-68 69q-9 9 -22.5 9t-22.5 -9.5t-9 -22.5t9 -22l68 -69l-68 -68q-9 -9 -9 -22.5t9 -22.5
q9 -10 22.5 -10t22.5 10l68 68l68 -68q10 -10 23 -10t22 10q10 9 10 22.5t-10 22.5z" />
    <glyph glyph-name="uF00C8" unicode="&#xf00c8;" 
d="M961 369q0 -9 0.5 -39.5t0.5 -71t0.5 -85.5t0.5 -82q0 -19 -9 -38.5t-26 -35.5t-40.5 -25.5t-52.5 -9.5h-638q-22 0 -45 9t-42.5 26t-31.5 41t-12 54v439q0 62 34 97.5t95 35.5h52h105q62 0 131.5 0.5t129.5 0.5h102h47q23 0 47.5 -9t43 -24.5t31 -36t12.5 -44.5v-11
q-29 0 -75.5 -0.5t-102.5 -1t-119 -1t-124.5 -1t-118.5 -0.5h-99q-26 0 -44.5 -16t-18.5 -45.5t-0.5 -64t-0.5 -62.5v-67h1v-31q0 -13 9 -22t22.5 -9t22.5 9t9 22v33h2l-2 192l603 -1q20 -3 37.5 -11t31.5 -23t23 -37.5t9 -53.5z" />
    <glyph glyph-name="uF00C9" unicode="&#xf00c9;" 
d="M385 426h-129v151q0 49 19.5 91.5t54 74.5t81 50.5t101.5 18.5q49 0 94.5 -18.5t81 -50.5t56.5 -74.5t21 -91.5v-151h-124v122q0 65 -36 100t-97 35q-55 0 -89 -35t-34 -100v-122zM826 365q28 0 48 -20t20 -48v-317q0 -27 -10 -51t-27 -42t-40 -28.5t-50 -10.5h-517
q-28 0 -50.5 10.5t-38 27.5t-24.5 39.5t-9 47.5v324q0 28 19.5 48t47.5 20h61h129h256h124h61z" />
    <glyph glyph-name="uF00CA" unicode="&#xf00ca;" horiz-adv-x="1026" 
d="M1016 21q5 -30 -13 -54.5t-49 -30.5l-123 -19q-29 -5 -54 13t-31 48l-104 662q-2 15 1.5 29t12 26t21 19.5t28.5 10.5l121 19q31 6 55.5 -12.5t29.5 -49.5zM501 749q30 0 51.5 -21.5t21.5 -52.5v-684q0 -31 -21.5 -52.5t-51.5 -21.5h-107q-30 0 -51.5 21.5t-21.5 52.5
v684q0 31 16 52.5t48 21.5h116zM501 232q10 0 17 10t7 23q0 15 -7 24t-17 9h-107q-10 0 -17 -9t-7 -24q0 -13 7 -23t17 -10h107zM501 362q10 0 17 10t7 24.5t-7 23.5t-17 9h-107q-10 0 -17 -9t-7 -23.5t7 -24.5t17 -10h107zM179 749q31 0 53 -21.5t22 -52.5v-684
q0 -31 -22 -52.5t-53 -21.5h-106q-31 0 -53 21.5t-22 52.5v684q0 31 22 52.5t53 21.5h106zM77 493q-11 0 -18.5 -9.5t-7.5 -23.5t7.5 -23.5t18.5 -9.5h98q11 0 18 9.5t7 23.5t-7 23.5t-18 9.5h-98zM179 171q11 0 18 9t7 23t-7 22.5t-18 8.5h-102q-11 0 -18.5 -8.5
t-7.5 -22.5t7.5 -23t18.5 -9h102zM179 297q11 0 18 9t7 23.5t-7 23.5t-18 9h-102q-11 0 -18.5 -9t-7.5 -23.5t7.5 -23.5t18.5 -9h102z" />
    <glyph glyph-name="uF00CB" unicode="&#xf00cb;" 
d="M913 -212h-66q-30 0 -51.5 5t-37 16t-26 27.5t-19.5 37.5q-16 39 -28.5 70.5t-21.5 55.5q-12 27 -21 49h-255q-7 -23 -17 -51q-9 -24 -22 -57t-31 -72q-20 -46 -46.5 -63.5t-60.5 -17.5h-71q-45 0 -61 20t3 68q18 46 42.5 108.5t52.5 132.5t57.5 144t57.5 144
q65 165 137 344q7 17 18 31q11 12 27.5 22t42.5 10q27 0 44 -11t28 -24q12 -15 19 -34q73 -180 138 -345q28 -70 58 -143.5t57 -142.5t51 -129.5t41 -104.5q15 -35 4.5 -62.5t-43.5 -27.5zM616 177l-97 347h-1l-108 -347h206z" />
    <glyph glyph-name="uF00CC" unicode="&#xf00cc;" horiz-adv-x="1027" 
d="M728 554q62 0 116 -23.5t94.5 -64t64 -94.5t23.5 -116q0 -78 -35.5 -142.5t-94.5 -104.5q-9 31 -29 58q3 2 4 2.5t2 2.5q8 12 8.5 18.5t-15 10.5t-22 4.5t-13.5 -7.5q-9 5 -19 9.5t-19 8.5q2 3 3.5 8t-0.5 17q-2 14 3.5 21t9.5 11q2 2 -1.5 6t-8.5 8.5t-9 9.5t-3 10
q6 20 -4.5 21.5t-36.5 0.5q-14 0 -20.5 -1.5t-17.5 0.5q-9 1 -14 3t-9.5 4.5t-10.5 4.5t-18 2q-18 1 -25 2t-10 2t-5 1.5t-8 0.5q-1 0 -2 -0.5t-3 -0.5q17 24 31.5 46t25.5 42q4 -4 9.5 -4.5t13.5 -0.5t16.5 -1.5t18.5 -7.5q15 -4 29 -8q11 -4 24 -8t21 -10q9 -6 7.5 -15
t-6 -19t-7.5 -18.5t4 -13.5q9 -7 13.5 -8.5t9.5 -1t14 2.5t27 2q-5 0 -1.5 4t10 9.5t14 11t12.5 10t16 7t21.5 6t18.5 9.5t9 17q1 24 -4.5 41.5t-21.5 43.5q-9 15 -16.5 24t-14.5 16t-14 12.5t-18 11.5l-20 12q-10 6 -21.5 8t-25 -2.5t-30.5 -20.5q-4 -5 -10.5 -12t-14 -13
t-15 -10t-12.5 -4q-4 0 -10.5 -0.5t-14.5 -2.5q18 52 16 88.5t-14 62.5q9 1 17 1h18zM612 128q25 -11 55.5 -18.5t58 -18t49.5 -26.5t30 -43q5 -15 8 -38.5t3 -48t-3.5 -46t-11.5 -31.5q-5 -8 -28.5 -16t-58.5 -15.5t-77.5 -14.5t-85.5 -12t-82.5 -7.5t-69.5 -2.5t-68 3
t-78 7.5t-79.5 11t-71.5 12.5t-54.5 12t-29.5 11q-10 9 -15.5 50.5t3.5 107.5q6 37 30.5 56t58 30.5t68.5 20.5t62 27q21 13 32 25t15.5 24t4.5 25.5t-1 28.5q-2 24 -15.5 37t-29.5 28q-8 7 -14.5 19t-11.5 26q-6 14 -11 31q-7 2 -14 8q-6 5 -12.5 14t-12 26.5t-4 31.5
t6.5 25q4 11 12 21q0 39 4 77q4 33 14 69t32 66q19 28 42.5 45.5t48.5 28t50 14t47 3.5q30 0 57 -6.5t50 -18t41.5 -25.5t29.5 -29q26 -33 38.5 -71t17.5 -73q7 -41 6 -81q6 -5 10 -13q4 -7 6.5 -18.5t0.5 -27.5q-2 -22 -9 -34.5t-15 -19.5q-9 -9 -18 -12q-5 -17 -10 -31
q-5 -13 -12 -25.5t-15 -18.5q-9 -9 -16.5 -14.5t-14 -12t-10.5 -14.5t-6 -21q-3 -15 -2.5 -31t8 -31.5t23.5 -30t44 -25.5zM478 -89q0 6 -3 23.5t-7 37.5t-8 38l-6 27q11 9 24 30q2 6 -3 14.5t-14 15.5q-9 8 -21 17h-50q-11 -9 -20 -17q-7 -7 -12 -15.5t-2 -13.5
q10 -19 18 -29q-2 -7 -6 -23.5t-9 -36.5t-8.5 -38.5t-3.5 -27.5q0 -5 8.5 -15t20.5 -19t23 -16t16 -7t16 6.5t21 15.5t18 18.5t8 14.5z" />
    <glyph glyph-name="uF00CD" unicode="&#xf00cd;" 
d="M959 272v-3q0 -86 -32.5 -162t-89 -132.5t-132.5 -89t-162 -32.5t-162.5 32.5t-133 89t-89 132.5t-32.5 162q0 74 24.5 141t67.5 120.5t102 91t129 53.5v-314q0 -35 7.5 -60.5t25 -40.5t45.5 -22t69 -7zM552 301q-11 0 -25 7t-14 31v370q0 17 8.5 24.5t32.5 7.5
q10 0 41.5 -1.5t75 -11.5t95 -33t102.5 -67q37 -31 56.5 -67t29 -67.5t11 -54.5t1.5 -27q0 -16 -7.5 -27t-26.5 -16q-7 -2 -37 -8t-71 -13.5t-87 -15.5t-86 -15t-68 -11.5t-31 -4.5z" />
    <glyph glyph-name="uF00CE" unicode="&#xf00ce;" 
d="M195 426q31 0 46 -19.5t15 -43.5v-447h-193v443q0 32 20 49.5t44 17.5h68zM514 678q28 0 44 -17t16 -40v-705h-191v702q0 16 6 27t15.5 18.5t20.5 11t20 3.5h69zM833 234q9 0 19.5 -5t20.5 -14t16.5 -21t6.5 -25v-253h-191v251q0 11 4.5 23.5t12.5 22t19.5 15.5t24.5 6
h67z" />
    <glyph glyph-name="uF00CF" unicode="&#xf00cf;" 
d="M1015 629q0 -5 -0.5 -9t-1.5 -8l1 -1q-21 -53 -43 -103q-20 -43 -44.5 -89.5t-47.5 -79.5q-24 -32 -49 -62.5t-61.5 -55t-88.5 -39.5t-130 -15q-73 0 -125.5 12.5t-87.5 29.5q-41 18 -69 43l1 1q-15 18 -15 44q0 29 20 49.5t50 20.5q13 0 24.5 -5t21.5 -13l1 -1
q11 -11 17 -24q8 -10 23 -20t38 -19q39 -17 80 -19.5t81 10t77 40.5t70 74q31 46 54 91.5t37 83.5q17 44 29 85h1q7 21 25.5 34.5t41.5 13.5q29 0 49.5 -20.5t20.5 -48.5zM865 107q20 0 37.5 -7.5t30 -20t20.5 -30.5t8 -37.5t-8 -37t-20.5 -30.5t-30 -20.5t-37.5 -7.5h-769
q-20 0 -37.5 7.5t-30.5 20.5t-20.5 30.5t-7.5 36.5v577q0 19 7.5 37t20.5 31t30.5 20.5t37.5 7.5t38 -7.5t30.5 -20.5t20.5 -31t8 -37v-481h672z" />
    <glyph glyph-name="uF00D0" unicode="&#xf00d0;" horiz-adv-x="1026" 
d="M421 361l-165 -139v187l185 162l5 -6l168 -195l309 320l92 -112l-414 -432l-3 8zM929 106q19 0 37 -7.5t31 -20t20.5 -30t7.5 -37.5t-7.5 -37.5t-20.5 -30.5t-31 -20.5t-37 -7.5h-833q-20 0 -37.5 7.5t-30.5 20.5t-20.5 30.5t-7.5 37.5v640q0 20 7.5 38t20.5 30.5
t30.5 20t37.5 7.5t38 -7.5t30.5 -20t20.5 -30.5t8 -38v-545h736z" />
    <glyph glyph-name="uF00D1" unicode="&#xf00d1;" 
d="M647 -19q-10 -7 -24.5 -17.5t-36.5 -10.5q-12 -1 -19 -1h-11q-5 0 -9 -1q2 -14 7 -28q4 -12 11 -25t19 -23t20.5 -16t15 -8.5t11.5 -4t9 -3.5q9 -3 14.5 -15t-1.5 -25q-6 -12 -19.5 -14t-25.5 0q-21 6 -42 18.5t-37 32.5q-16 21 -24.5 41t-13.5 36q-4 18 -6 34h-9h-11
q-7 0 -17 1q-19 0 -34 7.5t-25 19.5q-4 5 -17.5 22.5t-28 36.5t-26.5 35.5t-16 23.5q-7 12 -11.5 27.5t-3.5 50.5v299q0 19 6 30t17 16.5t24 6.5t25 1h32h56q31 0 67 0.5t69 0.5h58h36q63 2 63 -67q0 -11 0.5 -35t0.5 -54v-63v-61q0 -28 0.5 -48t0.5 -24v-36q0 -20 -12 -39
q-6 -10 -18 -28.5t-25 -37.5t-24 -35t-15 -20zM342 584q-1 44 -1 82v101q0 21 16.5 32.5t34.5 12.5h244q22 0 34 -12.5t12 -30.5v-100q0 -37 1 -83zM569 642h58v56h-58v-56zM399 642h57v56h-57v-56z" />
    <glyph glyph-name="uF00D2" unicode="&#xf00d2;" 
d="M264 812q23 0 40 -17t17 -40v-909q0 -23 -17 -40t-40 -17h-13q-24 0 -40.5 17t-16.5 40v909q0 23 16.5 40t40.5 17h13zM863 548q16 -10 23 -24t5.5 -28t-10.5 -28.5t-24 -23.5q-10 -6 -40.5 -25.5t-71 -45.5t-85 -55t-85 -55t-70 -44.5t-39.5 -24.5q-8 -5 -21 -2
t-26 10.5t-22.5 18.5t-9.5 25q-1 15 -1 49v81v94q0 50 0.5 95t0.5 79v50q0 12 8 23.5t20.5 19t26.5 10t26 -3.5q9 -4 38 -18.5t69.5 -33.5t86 -41.5t87 -43.5t72.5 -36.5t42 -21.5z" />
    <glyph glyph-name="uF00D3" unicode="&#xf00d3;" 
d="M538.5 812q100.5 0 188.5 -38t153.5 -103.5t103 -153.5t37.5 -187q0 -100 -37.5 -187.5t-103 -153.5t-153.5 -104t-188.5 -38t-188 38t-153 104t-103 153.5t-37.5 187.5q0 99 37.5 187t103 153.5t153 103.5t188 38zM899 362q-6 65 -34 123t-71.5 102t-101 71.5
t-123.5 32.5v-98q45 -6 85 -25.5t70 -50t50 -70.5t25 -85h100zM569 362h127q-9 48 -43.5 83t-83.5 44v-127zM508 489q-49 -9 -84.5 -43.5t-44.5 -83.5h129v127zM379 299q9 -49 44.5 -84t84.5 -44v128h-129zM569 172q49 9 83.5 43.5t43.5 83.5h-127v-127zM508 692
q-67 -6 -124.5 -33.5t-101.5 -71.5t-71.5 -102t-33.5 -123h97q5 46 25 86t51 70.5t71.5 50t86.5 24.5v99zM177 299q7 -65 34.5 -123t71.5 -101.5t101.5 -71t123.5 -32.5v97q-46 5 -86.5 24.5t-71.5 50.5t-51 70.5t-25 85.5h-97zM569 -29q66 6 123 33.5t101 71t71.5 101
t33.5 122.5h-99q-5 -45 -25 -84.5t-50 -70.5t-70 -50.5t-85 -25.5v-97z" />
    <glyph glyph-name="uF00D4" unicode="&#xf00d4;" 
d="M643 238q33 53 49.5 108t14.5 109q-1 46 0.5 86.5t5.5 75.5h243q30 0 48.5 -16.5t18.5 -46.5v-316h-380zM613 128q25 -11 55 -18.5t58 -18t50 -27t31 -43.5q5 -15 8 -38.5t3 -47.5t-3.5 -45.5t-10.5 -32.5q-6 -8 -29.5 -16t-58.5 -15.5t-78 -14.5t-86 -12t-83 -7.5
t-69.5 -2.5t-67.5 3t-78.5 7.5t-79.5 11t-71.5 12.5t-55 12t-28.5 11q-10 8 -16 50t4 108q6 37 31 56.5t57.5 30.5t68 20t62.5 27q21 13 32.5 25t16.5 24t5 25.5t-1 29.5q-2 24 -16.5 37t-31.5 27q-9 7 -15 19.5t-11 26.5q-5 15 -10 31q-7 2 -14 8q-7 5 -13.5 14t-11.5 26.5
t-3.5 31t5.5 24.5t12 21q-1 39 4 77q5 33 15.5 69t30.5 66q20 29 43.5 46.5t48 28t49.5 14t48 3.5q29 0 56.5 -6.5t51 -18t41 -25.5t29.5 -29q26 -33 38.5 -71.5t17.5 -73.5q5 -41 5 -81q7 -4 11 -12q4 -7 7 -18.5t0 -27.5q-2 -22 -9 -34.5t-14 -19.5q-9 -9 -18 -12
q-6 -17 -11 -31t-12 -26t-15 -19q-10 -9 -17.5 -14.5t-13.5 -12t-10 -14.5t-6 -21q-2 -15 -1.5 -31t8 -31t23.5 -29.5t43 -25.5zM478 -89q0 6 -3 23t-6.5 37t-7.5 38l-6 27q15 11 23 31q2 6 -2.5 14t-12.5 15q-9 8 -22 17h-51q-11 -9 -19 -17q-7 -7 -12 -15t-2 -13
q5 -10 9 -17t9 -13q-2 -7 -6 -23.5t-9.5 -36.5t-9 -38t-3.5 -27q0 -5 9 -15t20.5 -19.5t23 -17t16.5 -7.5q6 0 16 7t20.5 16t18 18.5t7.5 15.5zM1009 172q7 0 10.5 -10t3.5 -20q0 -11 -3.5 -22t-10.5 -11h-209q-14 23 -31 38t-34 25h274z" />
    <glyph glyph-name="uF00D5" unicode="&#xf00d5;" 
d="M357 165q0 -20 -16.5 -32t-42.5 -23.5t-55.5 -25.5t-54.5 -39h-19q-42 0 -73 8.5t-52.5 23t-32.5 32.5t-11 36q0 22 22.5 35.5t49.5 24.5t49.5 23.5t22.5 32t-12 35.5t-27 37t-27 49.5t-12 72.5q0 31 6.5 61t19.5 52.5t33.5 35.5t48.5 13q37 0 62 -12q-7 -37 -7 -77
q0 -64 11 -109t27 -78q-15 -21 -28.5 -38.5t-13.5 -42.5q0 -13 14.5 -23t34.5 -18.5t42.5 -18t39.5 -19.5q1 -5 1 -16zM865 260q0 -11 12 -20.5t29.5 -17.5t38.5 -15.5t38 -16.5t29 -19.5t12 -25.5q0 -22 -15.5 -39.5t-41 -29.5t-58.5 -18t-68 -7q-29 20 -62 30.5t-62 19.5
t-50 19.5t-25 31.5q4 19 26.5 31.5t48.5 23t47 23t21 30.5q0 22 -16 39.5t-34 41.5q17 36 27.5 85t10.5 116q0 14 -1.5 28.5t-3.5 28.5q27 18 48 18q48 0 77 -15.5t43.5 -39t19.5 -51t5 -49.5q0 -46 -15 -74.5t-33 -49t-33 -37.5t-15 -41zM578 152q0 -22 18.5 -38.5
t47.5 -31t62.5 -28t62.5 -29.5t48 -35t19 -44q0 -18 -29 -33.5t-76 -29t-108.5 -21t-125.5 -7.5q-74 0 -131 7.5t-95.5 20.5t-58 29t-19.5 33q0 25 18.5 44t47.5 34.5t62 28t62 27t48 31.5t19 40.5t-10 44t-25 41.5t-32 45.5t-32 55.5t-25 70.5t-10 92.5q0 113 42.5 180
t131.5 67q75 0 118 -22.5t65 -57.5t28 -77.5t6 -83.5q0 -55 -10 -95t-24.5 -70t-30.5 -53t-30.5 -44t-24 -43t-9.5 -49z" />
    <glyph glyph-name="uF00D6" unicode="&#xf00d6;" 
d="M935 21q6 -15 8.5 -39t2.5 -48t-4 -45.5t-11 -32.5q-5 -7 -29 -15t-58.5 -15.5t-77.5 -14.5t-86 -12t-83 -8t-70 -3q-45 0 -106 6.5t-119 16t-101.5 19t-52.5 16.5q-12 8 -17.5 50t4.5 107q6 37 30.5 56.5t58 31t68.5 20.5t61 26q22 13 33.5 25.5t16 24.5t4.5 25.5
t-1 28.5q-2 24 -15.5 37.5t-31.5 27.5q-8 7 -14 20t-11 26q-5 15 -10 31q-7 3 -15 8q-6 5 -13 14t-12 26.5t-3.5 31t5.5 23.5q4 11 12 22q-1 38 4 77q4 33 15 69.5t31 65.5q19 28 43 45.5t48.5 28t49.5 14.5t48 4q30 0 57 -7t50.5 -18.5t41.5 -25t30 -27.5q25 -33 37.5 -72
t18.5 -74q6 -41 5 -81q7 -4 11 -13q4 -7 6.5 -18t0.5 -27q-3 -22 -9.5 -34.5t-14.5 -19.5q-10 -8 -20 -12q-4 -16 -9 -31q-5 -13 -11.5 -26t-14.5 -20q-10 -8 -18 -13.5t-14 -11.5t-10 -15t-6 -21q-3 -15 -2 -31t8 -31.5t23.5 -30t43.5 -25.5q25 -10 55.5 -17.5t58.5 -18.5
t49.5 -27t30.5 -43zM544.5 -146q5.5 0 16 6.5t20.5 16t18 18.5t8 14q0 6 -3 21.5t-7.5 33.5t-8.5 36t-7 29q10 8 17.5 18t7.5 20q0 8 -6 16.5t-13 14.5q-8 8 -17 15h-51q-10 -7 -17 -15q-6 -6 -11 -14t-5 -16q0 -6 7.5 -16.5t18.5 -19.5q-3 -9 -8 -26t-9.5 -36t-8.5 -36
t-4 -25q0 -5 8 -14t18.5 -18.5t20.5 -16t15.5 -6.5z" />
    <glyph glyph-name="uF00D7" unicode="&#xf00d7;" 
d="M932 20q5 -16 8 -39.5t3 -47.5t-3.5 -45t-10.5 -33q-5 -7 -28.5 -14.5t-58.5 -15t-78 -15t-86.5 -12.5t-83 -7.5t-69 -2.5t-67.5 3t-78 7.5t-79.5 11t-71.5 13t-54.5 12t-28.5 10.5q-10 8 -16 49.5t5 107.5q6 37 30.5 56.5t57 30.5t67.5 20t62 27q19 12 30.5 23t16.5 22
t6.5 22t0.5 25l-90 12q-18 13 -32 39q-13 21 -22.5 58t-9.5 97q0 49 5 104.5t25 106t59 90.5t108 61q20 7 39.5 9.5t37.5 3.5q10 1 21 1h21q51 0 90.5 -20.5t69 -53t50 -74.5t32 -83.5t16 -81t3.5 -66.5q-3 -43 -13.5 -77.5t-22.5 -58.5q-13 -29 -29 -51l-100 -16
q-1 -14 1.5 -27.5t10.5 -27t23.5 -25.5t39.5 -21q25 -11 55 -19t58 -18.5t50 -27t30 -42.5zM542.5 -145q5.5 0 15.5 7t20 16t18 18t8 14q0 7 -3 22t-7 33.5t-8.5 36t-7.5 28.5q10 8 18 18t8 20q0 9 -5.5 17t-13.5 15t-18 14h-51q-9 -7 -16 -14q-6 -6 -11.5 -14.5t-5.5 -17.5
q0 -5 7.5 -15t18.5 -20q-3 -9 -7.5 -26t-9.5 -36t-9 -35.5t-4 -25.5q0 -5 8 -14t18.5 -18t21 -16t16 -7z" />
    <glyph glyph-name="uF00D8" unicode="&#xf00d8;" 
d="M554 170q-27 -42 -38 -89.5t-6.5 -95t25.5 -92t58 -80.5l3 -4l4 -3q-55 -9 -109 -14t-92 -4q-44 0 -105.5 6t-119 15.5t-101 19t-52.5 17.5q-12 8 -17.5 50t4.5 106q6 38 31 57t57 30.5t67.5 21t62.5 26.5q22 14 33 25.5t16 24t5 25.5t-1 29q-2 23 -16.5 36.5t-30.5 27.5
q-8 6 -14.5 19t-11.5 26q-5 16 -9 32q-8 1 -15 6q-6 5 -12.5 14.5t-11.5 26.5q-6 17 -4.5 31t5.5 24q4 12 12 22q0 39 4 77q4 32 14.5 69t30.5 67q20 27 44 45t48.5 28t49.5 14t48 4q29 0 56.5 -6.5t50.5 -18t41.5 -25.5t29.5 -28q25 -33 37.5 -72t17.5 -74q5 -41 4 -81
q7 -4 11 -12q5 -8 8 -19t1 -28q-3 -21 -10 -33.5t-15 -19.5q-9 -8 -18 -11q-6 -17 -11 -32q-5 -12 -11 -25t-14 -19q-9 -8 -17 -14t-14 -13t-10 -15t-7 -20q-3 -18 -1 -37.5t15 -36.5zM479 -91q0 6 -3 23.5t-7 37t-8 38t-6 26.5q13 12 23 32q2 6 -2.5 13.5t-12.5 15.5
q-9 9 -21 18h-51q-11 -9 -19 -18q-7 -8 -12 -15.5t-2 -12.5q5 -10 9.5 -17.5t8.5 -13.5q-2 -6 -6 -23t-9 -36.5t-8.5 -38t-3.5 -26.5q0 -5 9 -15t20 -19.5t22.5 -16.5t16.5 -7t15 6.5t21 15.5t18.5 18.5t7.5 14.5zM801 241q46 0 86.5 -17.5t71 -48t48 -71t17.5 -88.5
q0 -46 -17.5 -86t-48 -71t-71 -48.5t-86.5 -17.5q-47 0 -88 17.5t-72 48.5t-48.5 71t-17.5 86q0 48 17.5 88.5t48.5 71t72 48t88 17.5zM927 -15q14 0 22.5 8.5t8.5 22t-8.5 22.5t-22.5 9h-96v96q0 14 -9 23t-21 9q-15 0 -23.5 -9t-8.5 -23v-96h-96q-14 0 -23 -9t-9 -22.5
t9 -22t23 -8.5h96v-96q0 -15 8.5 -23.5t23.5 -8.5q12 0 21 8.5t9 23.5v96h96z" />
    <glyph glyph-name="uF00DA" unicode="&#xf00da;" horiz-adv-x="1027" 
d="M989 237q19 -7 27 -20.5t9.5 -30t-1.5 -32t-7 -24.5t-13.5 -20.5t-22 -19t-28.5 -9.5t-33 7q-11 5 -40.5 21t-71 38t-89 46.5t-92 48.5t-82.5 44t-60 31l-42 -91q-5 -13 -16 -20t-25 -9l-13 -30q10 -4 14 -14t-1 -20q-5 -9 -14.5 -13t-18.5 1l-232 104q-10 5 -13.5 15
t0.5 19q5 10 14.5 13.5t19.5 -1.5l13 30q-8 11 -9.5 24.5t4.5 26.5l126 278q5 13 16 20t25 9l13 29q-10 5 -13.5 15t1.5 19q4 10 13.5 13.5t19.5 -0.5l232 -105q9 -4 13 -14t-1 -19q-5 -10 -14 -13.5t-19 0.5l-14 -29q8 -11 9.5 -24.5t-4.5 -26.5l-41 -91q23 -10 64 -25
t89 -33.5t98.5 -38t94.5 -36.5t75 -28.5t40 -14.5zM401 -19q20 0 33 -13.5t13 -33.5v-35q0 -20 -13 -33t-33 -13h-290q-20 0 -34 13t-14 33v35q0 20 14 33.5t34 13.5h290z" />
    <glyph glyph-name="uF00DB" unicode="&#xf00db;" 
d="M889 274q-47 1 -98 -3q-44 -3 -99.5 -10t-114.5 -22l151 -249q10 -19 11.5 -39.5t-4.5 -39.5t-19 -34.5t-32 -26.5q-19 -10 -39.5 -11.5t-39 4.5t-34.5 19t-26 32l-126 279q-51 -29 -92.5 -63t-71.5 -63q-34 -34 -61 -69l-2 834z" />
    <glyph glyph-name="uF00DC" unicode="&#xf00dc;" 
d="M253 461q0 -67 36 -121.5t93 -82.5l2 -133q-55 15 -102 47t-81 76.5t-53.5 99t-19.5 114.5q0 72 27.5 136t75.5 112t111.5 75.5t136.5 27.5t137 -27.5t111.5 -75.5t75 -112t27.5 -136q0 -45 -11 -83l-115 76v7q0 47 -17.5 88t-48 71.5t-71.5 48.5t-87.5 18t-88 -18
t-72 -48.5t-48.5 -71.5t-18 -88zM961 174q-35 1 -72 -2q-33 -2 -74 -7.5t-84 -17.5l111 -183q14 -27 5 -57.5t-38 -45.5q-27 -15 -57.5 -5.5t-45.5 37.5l-92 206q-38 -22 -68 -47t-51 -46q-26 -26 -45 -51l-3 616z" />
    <glyph glyph-name="uF00DD" unicode="&#xf00dd;" 
d="M802 320q32 0 60.5 -12t50 -33.5t33.5 -50t12 -60.5q0 -33 -12 -61t-33.5 -49.5t-50 -34t-60.5 -12.5q-30 0 -56 11t-47 28v-128q0 -28 -19.5 -47.5t-46.5 -19.5h-505q-28 0 -48 19.5t-20 47.5v114q6 21 19 31.5t39 -5.5q12 -7 18 -8q27 -13 54.5 -13t51.5 10t42 28
t28.5 41.5t10.5 51.5t-10.5 52t-28.5 42t-42 28t-52 10q-26 0 -52 -11q-6 -2 -10 -4q-12 -7 -24 -12t-21 -4t-15.5 10.5t-7.5 30.5v108q0 27 20 47t48 20h160q-17 21 -26.5 46t-9.5 54q0 33 13 62.5t34.5 51t50.5 34t61.5 12.5t62 -12.5t51 -34t34 -51t12.5 -62.5
q0 -58 -35 -100h97q27 0 46.5 -20t19.5 -47v-136q21 17 47 27.5t56 10.5z" />
    <glyph glyph-name="uF00DE" unicode="&#xf00de;" 
d="M871 751q19 0 35.5 -7t28.5 -19t19.5 -28.5t7.5 -36.5v-720q0 -39 -25.5 -65t-63.5 -26h-721q-41 0 -66.5 27t-25.5 67v718q0 36 25 63t66 27h720zM634 -17q18 0 26.5 8.5t8.5 22.5t-8.5 23t-26.5 9h-63q1 2 1 6v508h64q18 0 25.5 9.5t7.5 22.5t-7.5 22.5t-25.5 9.5h-250
q-18 0 -25.5 -9.5t-7.5 -22.5t7.5 -22.5t25.5 -9.5h57v-508q0 -2 0.5 -3t0.5 -3h-56q-18 0 -26.5 -9t-8.5 -23t8.5 -22.5t26.5 -8.5h246z" />
    <glyph glyph-name="uF00DF" unicode="&#xf00df;" 
d="M818 623q15 0 29 -7t25.5 -17.5t18 -24.5t6.5 -28v-675q0 -14 -6.5 -28.5t-18 -26.5t-25.5 -19.5t-29 -7.5h-556q-29 0 -48.5 22.5t-19.5 52.5v680q0 14 6 28t15.5 25t23 18.5t27.5 7.5h55v69q0 24 20.5 41t44.5 17t44 -17t20 -41v-69h191v69q0 24 19.5 41t46 17t46 -17
t19.5 -41v-69h46zM481 433q-13 0 -22 -11t-9 -24.5t9 -25t22 -11.5h256q15 0 24 11.5t9 25t-9 24.5t-24 11h-256zM550 -23q13 0 22.5 11.5t9.5 25t-9.5 24.5t-22.5 11h-201q-13 0 -22.5 -11t-9.5 -24.5t9.5 -25t22.5 -11.5h201zM741 169q15 0 24 13.5t9 27.5q0 13 -9 22.5
t-24 9.5h-392q-13 0 -22.5 -9.5t-9.5 -22.5q0 -14 9.5 -27.5t22.5 -13.5h392z" />
    <glyph glyph-name="uF00E0" unicode="&#xf00e0;" 
d="M736 242q47 0 88 -17.5t72 -48.5t48.5 -72t17.5 -88t-17.5 -88t-48.5 -71.5t-72 -48t-88 -17.5t-88 17.5t-71.5 48t-48 71.5t-17.5 88t17.5 88t48 72t71.5 48.5t88 17.5zM864 -21q14 0 23 9.5t9 23t-9 25.5t-23 12h-94v94q0 14 -10 23t-23.5 9t-25 -9t-11.5 -23v-94h-92
q-14 0 -22.5 -12t-8.5 -25.5t8.5 -23t22.5 -9.5h92v-92q0 -13 11.5 -22t25 -9t23.5 9t10 22v92h94zM527 220q-42 -43 -63.5 -96t-21.5 -109t21.5 -109t63.5 -95q7 -7 13 -12.5t13 -10.5h-292q-29 0 -48.5 20t-19.5 49v696q0 29 19.5 49t48.5 20h61v70q0 24 19.5 40.5
t43.5 16.5t41.5 -16.5t17.5 -40.5v-70h198v70q0 24 18.5 40.5t45 16.5t44 -16.5t17.5 -40.5v-70h60q29 0 49 -20t20 -49v-299q-42 29 -91 41.5t-98.5 8.5t-95.5 -25t-84 -59zM476 436q-13 0 -22.5 -12.5t-9.5 -26.5t9.5 -25.5t22.5 -11.5h264q14 0 23 11.5t9 25.5t-9 26.5
t-23 12.5h-264zM352.5 -22q13.5 0 22.5 10.5t9 23.5q0 15 -9 25.5t-22.5 10.5t-22.5 -10.5t-9 -25.5q0 -13 9 -23.5t22.5 -10.5zM416 171q14 0 23.5 10t9.5 23.5t-9.5 24t-23.5 10.5h-64q-13 0 -22 -10.5t-9 -24t9 -23.5t22 -10h64z" />
    <glyph glyph-name="uF00E1" unicode="&#xf00e1;" 
d="M874 750q35 0 59 -25t24 -59v-86q0 -35 -24 -59.5t-59 -24.5h-724q-35 0 -59.5 24.5t-24.5 59.5v86q0 34 24.5 59t59.5 25h724zM874 430q35 0 59 -24.5t24 -59.5v-87q0 -35 -24 -59.5t-59 -24.5h-724q-35 0 -59.5 24.5t-24.5 59.5v87q0 35 24.5 59.5t59.5 24.5h724z
M874 112q35 0 59 -25t24 -59v-93q0 -34 -24 -58t-59 -24h-724q-35 0 -59.5 24t-24.5 58v93q0 34 24.5 59t59.5 25h724z" />
    <glyph glyph-name="uF00E2" unicode="&#xf00e2;" 
d="M143 302h-25q-8 0 -14 0.5t-14 0.5h-26v429q0 33 23 56t56 23h742q17 0 31.5 -6t25.5 -17t17 -25t6 -31v-429h-23q-10 0 -16.5 -0.5t-14.5 -0.5h-26h-742zM973 233q18 0 29 -6t11 -20.5t-9.5 -24.5t-30.5 -10h-921q-21 0 -30.5 9.5t-9.5 20.5q0 15 10.5 23t29.5 8h921z
M452 106h129v-257q0 -29 -20.5 -45t-46.5 -16q-28 0 -45 19t-17 45v23v231z" />
    <glyph glyph-name="uF00E3" unicode="&#xf00e3;" horiz-adv-x="1026" 
d="M820 303q-15 2 -29.5 2t-29.5 -1l-700 1v428q0 32 23.5 55t55.5 23h736q32 0 55 -23t23 -55v-430h-134zM1014 200q-9 11 -21 20q-4 5 -8 8.5t-9 8.5h4q16 0 26 -9.5t10 -19.5q0 -2 -2 -8zM794 243q46 0 87 -17.5t71.5 -48.5t48 -72t17.5 -87t-17.5 -87t-48 -71.5
t-71.5 -48t-87 -17.5t-87 17.5t-71.5 48t-48.5 71.5t-18 87t18 87t48.5 72t71.5 48.5t87 17.5zM922 -14q13 0 22 9t9 22t-9 22.5t-22 9.5h-97v95q0 14 -8.5 23.5t-22.5 9.5q-13 0 -22.5 -9.5t-9.5 -23.5v-95h-95q-14 0 -23.5 -9.5t-9.5 -22.5t9.5 -22t23.5 -9h95v-96
q0 -14 9.5 -23t22.5 -9q14 0 22.5 9t8.5 23v96h97zM517 111q-23 -71 -11 -144.5t61 -132.5q-6 -18 -22.5 -30.5t-36.5 -12.5q-27 0 -45.5 18.5t-18.5 45.5v256h73zM587 220q-20 -19 -38 -43h-520q-17 0 -24 9t-7 20q0 10 7 20.5t24 10.5h574q-4 -5 -8 -8.5t-8 -8.5z" />
    <glyph glyph-name="uF00E4" unicode="&#xf00e4;" 
d="M633 677q23 -5 38.5 -25t17.5 -50q0 -9 1 -28.5t1 -41t-1.5 -39t-5.5 -21.5q-6 -7 -11.5 -6.5t-5.5 -5.5q0 -3 -1.5 -21.5t-9.5 -51.5q-4 -17 -11.5 -31t-15.5 -25q-11 -13 -21 -23q-1 -13 -1 -25v-22q0 -11 1 -17q1 -13 6.5 -18t20.5 -9q5 -2 18.5 -6t31.5 -10.5t38 -14
t38.5 -14t33 -12t21.5 -8.5q21 -11 27.5 -22t11.5 -29q2 -9 5.5 -33.5t7.5 -51t7 -50t4 -30.5q1 -13 -5 -22t-26 -14q-18 -4 -51 -9t-77 -9t-97 -6.5t-111 -2.5t-111.5 2t-98 5.5t-79 8t-53.5 10.5q-4 1 -10 4t-12 7.5t-9 11t-2 14.5t5.5 33t11 53.5t11.5 53.5t7 31
q4 13 11.5 26t26.5 28q9 7 33.5 15t51.5 15.5t50.5 12.5t30.5 7q15 3 27 7.5t12 12.5v60q-12 9 -22 20q-9 9 -18 22t-17 27q-14 28 -18 51t-5 27t-7.5 6.5t-10.5 11.5q-8 17 -7.5 36.5t2.5 55.5q3 36 12 68.5t38 60.5q16 13 41.5 22t52 13t50.5 4t37 -3q13 -4 21 -9t13 -9
t8 -7.5t6 -5.5q5 -4 13 -2.5t29 -2.5zM539 116l27 -107l45 121l-43 31zM465 163l-41 -33l46 -121l25 108zM829 563q15 -2 23.5 -14t9.5 -30q0 -5 1 -17t1 -24t-1 -23t-3 -13q-4 -4 -7.5 -3.5t-3.5 -3.5q0 -2 -0.5 -12.5t-5.5 -31.5q-2 -10 -6 -18t-10 -15q-5 -7 -12 -13
q-1 -8 -1 -15v-24q1 -7 4 -10t12 -5q5 -1 20 -6t33 -12t33.5 -12.5t21.5 -8.5q12 -6 16.5 -13t7.5 -18q1 -5 3 -19.5t4 -30.5t4 -29.5t2 -17.5q1 -8 -2.5 -14t-16.5 -8q-10 -2 -26.5 -5t-42.5 -5q-2 12 -6 24q-3 10 -7.5 21t-10.5 20q-11 15 -23.5 24t-24.5 15.5t-24.5 10
t-24.5 7.5q-52 18 -84 25.5t-36 12.5q-2 3 -2.5 7t-0.5 9t1 12q14 4 21.5 5t11.5 2q8 2 15 4.5t7 7.5v36l-2 1l-4 2q-2 1 -4 5q6 13 12 32q6 16 11.5 39.5t9.5 56.5q3 26 4 46.5t1 35.5v32q12 2 26 2t22 -2q18 -5 21.5 -10.5t7.5 -8.5q4 -2 8.5 -1.5t16.5 -1.5zM777 235
l7 -27l19 -6l14 37l-21 18zM724 254l-17 -17l1 -5l31 -9l4 11zM269 586q-16 2 -32 1q-15 -1 -32 -5t-31 -15q-12 -8 -19.5 -19t-11 -23t-4.5 -22t-1 -17q-1 -13 -2 -23.5t1 -19t3 -11.5t4 -5t5.5 -2.5t4.5 -13.5q1 -14 6.5 -26.5t11.5 -21.5q3 -5 7.5 -9.5t9 -9.5t10.5 -10
v-12v-18q-1 -6 -5 -10t-14 -6q-5 -1 -16.5 -4t-25.5 -7l-28 -8q-14 -4 -22 -7q-30 -14 -36 -49q-4 -16 -9 -41l-7 -35q-2 -10 0.5 -21.5t16.5 -14.5q7 -2 18 -3t21 -3q11 -2 24 -3q2 12 6 25q3 11 8.5 22t13.5 22q9 9 20.5 17.5t22.5 17.5q13 9 27 17l-10 26l22 17l24 -27
l12 3q2 0 6 2q2 1 4 1l20 23l17 -14q5 1 9.5 2t9.5 2l10 2q11 2 19 4t9 10q0 4 0.5 6.5t0.5 4.5v3q-10 4 -18 7l-14 4q-7 2 -11 4q-9 3 -10 8.5t-1 14.5v11q0 5 1 10q0 5 1 12q-8 12 -16 27q-7 12 -13.5 28t-11.5 33q-5 24 -7 50.5t-1 48.5q0 25 3 50z" />
    <glyph glyph-name="uF00E5" unicode="&#xf00e5;" 
d="M796 -92q0 -43 -21 -64t-67 -21l-373 1q-39 -1 -62.5 23.5t-23.5 65.5v678q0 45 25.5 69.5t73.5 24.5h253v55q0 16 10.5 27t24.5 11t24 -11t10 -27v-55h25q55 0 78 -26.5t23 -66.5v-684zM711 496q0 26 -12.5 40t-44.5 14h-260q-57 1 -59 -46v-258q0 -20 12.5 -34.5
t44.5 -14.5h262q31 1 44 14.5t13 36.5v248z" />
    <glyph glyph-name="uF00E6" unicode="&#xf00e6;" 
d="M802 743q37 0 65.5 -12.5t49 -34t31 -50t10.5 -58.5v-580q0 -34 -10.5 -62t-30.5 -48.5t-49 -32t-67 -11.5h-580q-70 0 -112.5 40t-42.5 110v581q0 33 11 62t31.5 50.5t48.5 33.5t62 12h583zM351 -22q14 0 20.5 0.5t9.5 4t3.5 10.5t0.5 20v312q0 25 -4 30t-30 5h-126
q-13 0 -19.5 -0.5t-9 -4t-2.5 -10.5v-20v-312v-20q0 -7 2.5 -10.5t9 -4t19.5 -0.5h126zM830 325q0 25 -5.5 30t-31.5 5h-245q-13 0 -20.5 -0.5t-11 -4t-4 -10.5t-0.5 -20v-312q0 -13 0.5 -20t4 -10.5t11 -4t20.5 -0.5h245q13 0 20.5 0.5t11 4t4.5 10.5t1 20v312zM797 424
q13 0 20 0.5t10 3.5t3 9v21v120v21q0 7 -3 10.5t-10 4.5t-20 1h-570q-13 0 -20 -1t-10 -4.5t-3 -10.5v-21v-120v-21q0 -6 3 -9t10 -3.5t20 -0.5h570z" />
    <glyph glyph-name="uF00E7" unicode="&#xf00e7;" 
d="M794 743q40 0 70.5 -13.5t51 -36.5t30.5 -53.5t10 -64.5v-585q0 -28 -10.5 -52.5t-29.5 -43t-43.5 -29t-52.5 -10.5h-588q-76 0 -120.5 40t-44.5 125v560q0 29 10 59t30.5 53t51 37t71.5 14h564zM190 515q0 -11 4.5 -17.5t12 -8.5t17.5 -2h22h531h22q10 0 17.5 2t12 8.5
t4.5 17.5v50q0 23 -16 38.5t-40 15.5h-531q-24 0 -40 -8.5t-16 -31.5v-64zM805 299q11 0 19.5 7.5t8.5 19.5v12q0 11 -8.5 19t-19.5 8h-142q-12 0 -20 -8t-8 -19v-12q0 -12 8 -19.5t20 -7.5h142zM830 209q0 11 -8 19.5t-19 8.5h-195q-11 0 -19 -8.5t-8 -19.5v-9q0 -12 8 -20
t19 -8h195q11 0 19 8t8 20v9zM450 304q0 23 -16 38.5t-40 15.5h-146q-23 0 -38.5 -15.5t-15.5 -38.5v-269q0 -23 15.5 -38.5t38.5 -15.5h146q24 0 40 15.5t16 38.5v269zM835 83q0 11 -8.5 19.5t-19.5 8.5h-204q-11 0 -19.5 -8.5t-8.5 -19.5v-13q0 -12 8.5 -20t19.5 -8h204
q11 0 19.5 8t8.5 20v13z" />
    <glyph glyph-name="uF00E8" unicode="&#xf00e8;" horiz-adv-x="1026" 
d="M320.5 362q-26.5 0 -49.5 10t-40.5 27.5t-27.5 40.5t-10 49.5t10 49.5t27.5 40.5t40.5 27.5t49.5 10t49.5 -10t40.5 -27.5t28 -40.5t10.5 -49.5t-10.5 -49.5t-28 -40.5t-40.5 -27.5t-49.5 -10zM985 168q8 0 15.5 -7t13 -17t8.5 -21t3 -19.5t-3 -19.5t-8.5 -21t-13 -16.5
t-15.5 -6.5h-99q11 32 11 64.5t-11 63.5h99zM41 423q-8 0 -15.5 7.5t-13 18.5t-8.5 22.5t-3 20t3 18.5t8.5 19t13 15t15.5 6h94q-5 -14 -7.5 -29.5t-2.5 -32.5q0 -34 12 -65h-96zM505 423q11 32 11 65q0 32 -9 62h478q8 0 15.5 -6t13 -15t8.5 -19t3 -18.5t-3 -20t-8.5 -22.5
t-13 -18.5t-15.5 -7.5h-480zM525 168q-11 -31 -11 -63.5t11 -64.5h-484q-8 0 -15.5 6t-13 15.5t-8.5 19.5t-3 18t3 20t8.5 23t13 18.5t15.5 7.5h484zM704.5 232q26.5 0 49.5 -10t40.5 -27t27 -40.5t9.5 -49.5t-9.5 -48.5t-27 -40t-40.5 -27.5t-49.5 -10t-49 10t-40 27.5
t-27 40t-9.5 48.5t9.5 49.5t27 40.5t40 27t49 10z" />
    <glyph glyph-name="uF00E9" unicode="&#xf00e9;" horiz-adv-x="1217" 
d="M558 351q16 -32 16 -70q0 -34 -12.5 -63.5t-34 -51.5t-51 -34.5t-63 -12.5t-63 12.5t-51 34.5t-34.5 51.5t-13 63t13 63t34.5 51.5t51 34.5t63.5 12.5q36 0 66 -14t52 -38q-14 9 -31 9q-25 0 -42.5 -17t-17.5 -42q0 -24 17.5 -41t42 -17t41.5 17t17 41q0 8 -1 11z
M412 633q84 0 154.5 -26t130 -65t108 -84t88 -84t70.5 -65t57 -26q-26 0 -57 -26.5t-71 -66.5t-88 -85.5t-107.5 -85.5t-130 -66t-154.5 -26t-156 26t-133 66t-110.5 85.5t-89 85.5t-69.5 66.5t-51 26.5q21 0 51 26t69.5 65t89 84t110.5 84t133 65t156 26zM412 55
q47 0 88 17.5t71.5 48.5t48 71.5t17.5 88.5q0 46 -17.5 87t-48 71.5t-71.5 48.5t-88 18q-46 0 -87 -18t-72 -48.5t-49 -71.5t-18 -87q0 -48 18 -88.5t49 -71.5t72 -48.5t87 -17.5z" />
    <glyph glyph-name="uF00EA" unicode="&#xf00ea;" horiz-adv-x="1219" 
d="M408 176q84 0 140.5 14.5t98.5 36.5t77 47t75 47t91.5 36.5t129.5 14.5q-26 0 -57 -24t-71 -60.5t-88.5 -78.5t-107.5 -78.5t-130 -60.5t-155 -24t-156.5 24t-133.5 60.5t-110.5 78.5t-89 78.5t-69.5 60.5t-51 24q72 0 121.5 -14.5t89 -36.5t75 -47t79 -47t101 -36.5
t141.5 -14.5z" />
    <glyph glyph-name="uF00EB" unicode="&#xf00eb;" 
d="M833 747q25 0 48 -11.5t41 -30.5t29 -42.5t11 -47.5v-634q0 -27 -11.5 -50t-30.5 -40.5t-42.5 -27.5t-48.5 -10h-702q-25 0 -48 9.5t-40 26t-28 39t-11 48.5v646q0 25 11.5 47.5t29.5 40t43.5 27.5t52.5 10h696zM177 556q-14 0 -23.5 -9t-9.5 -23t9.5 -23.5t23.5 -9.5
h300q13 0 22.5 9.5t9.5 23.5t-9.5 23t-22.5 9h-300zM177 363q-14 0 -23.5 -9t-9.5 -23t9.5 -23t23.5 -9h257q13 0 22.5 9t9.5 23t-9.5 23t-22.5 9h-257zM413 106q13 0 22 9.5t9 23t-9 22.5t-22 9h-236q-14 0 -23.5 -9t-9.5 -22.5t9.5 -23t23.5 -9.5h236zM894 300l-172 195
l-211 -195h129q1 -34 -3 -69q-4 -29 -14 -65.5t-31.5 -69.5t-47.5 -56t-49 -37q-27 -17 -55 -28h248q5 9 11 20l14 26q8 17 19 41q12 30 19.5 71t11.5 78q4 43 5 89h126z" />
    <glyph glyph-name="uF00EC" unicode="&#xf00ec;" 
d="M879 31q4 -15 7 -37t3 -44.5t-3.5 -42.5t-11.5 -30q-5 -7 -26 -13.5t-52.5 -12.5t-70.5 -11t-78 -8.5t-75.5 -5t-64.5 -1.5t-64 2t-74.5 5t-76.5 7t-69.5 9.5t-53.5 10t-27 9.5q-9 7 -14 45.5t4 99.5q5 35 28 53.5t53.5 29t63.5 19t58 24.5q19 13 30 24t15.5 22.5
t4.5 23.5t-1 28q-2 22 -15 34.5t-28 25.5q-8 6 -13.5 18t-11.5 24q-5 13 -9 30q-2 2 -6 7q-3 5 -7 13.5t-9 25t-7 29.5t1 22q1 11 5 19q0 36 4 72q4 30 13 64.5t30 62.5q18 26 39.5 42.5t44.5 26t46.5 13t45.5 3.5q23 -2 38 -5.5t24.5 -8.5t16 -12.5t13.5 -14.5h19
q10 0 18.5 -2.5t17.5 -9.5t19 -21q23 -30 34.5 -66.5t16.5 -69.5q5 -38 6 -75q2 -5 3 -12t1.5 -17.5t-1.5 -25.5q-2 -20 -6 -32t-9 -18q-5 -7 -11 -10q-5 -17 -10 -30q-5 -12 -10.5 -24t-13.5 -18q-18 -14 -29 -24t-15 -33q-3 -15 -2 -29t7.5 -29t21.5 -28.5t41 -23.5
q24 -9 52 -17t54 -17.5t46.5 -25t29.5 -39.5zM550 64q3 7 0.5 13.5t-7.5 12.5t-13 13h-47q-7 -7 -11 -13q-4 -5 -6.5 -11t0.5 -11q7 -15 12 -25.5t11 -16.5q-2 -10 -6 -26.5t-7.5 -34.5t-6 -34t-2.5 -24q0 -5 4.5 -12.5t10.5 -15t13 -12.5t12 -5t12 5t14 11.5t11.5 14.5
t4.5 13q0 6 -3 21t-6.5 33t-8 35.5t-7.5 28.5q6 5 12 14.5t14 25.5z" />
    <glyph glyph-name="uF00ED" unicode="&#xf00ed;" 
d="M807 144q17 0 29 -7t19 -18.5t10 -25.5t3 -29v-71q0 -27 -17.5 -47t-50.5 -20h-701q-22 0 -41 16.5t-19 44.5v85q0 31 20 51.5t49 20.5h699zM800 397q18 0 31 -6.5t21.5 -17t12 -23.5t3.5 -25v-58q0 -29 -15.5 -49t-54.5 -20h-694q-27 0 -46 20t-19 44v72q0 26 18 44.5
t44 18.5h699zM910 670q29 0 48.5 -23t19.5 -53v-63q0 -32 -19 -56t-49 -24h-697q-27 0 -46.5 18.5t-19.5 45.5v88q0 29 17.5 48t44.5 19h701z" />
    <glyph glyph-name="uF00EE" unicode="&#xf00ee;" horiz-adv-x="1101" 
d="M52 237q-24 0 -41 16t-17 41v77q0 24 17 41t41 17h742q-19 -11 -30 -26.5t-11 -30.5v-41l1 -32q-6 -1 -18 -1h-69q-83 0 -92 -61h-523zM179 495q-23 0 -40.5 16.5t-17.5 41.5v71q0 23 17.5 41t40.5 18h780q24 0 41 -18t17 -41v-71q0 -25 -17 -41.5t-41 -16.5h-780z
M712 42q18 0 28 2t14.5 -1t5.5 -14.5t1 -37.5v-7q0 -5 1 -8h-710q-24 0 -41 17.5t-17 41.5v77q0 23 17 40.5t41 17.5h521v-24q0 -45 25.5 -74t58.5 -29h21q4 0 6 -0.5t7 -0.5h21zM1079 208q7 -6 11 -14.5t4.5 -17.5t-2 -16.5t-9.5 -12.5q-16 -14 -44 -31.5t-59.5 -36.5
t-61 -37t-48.5 -33q-23 -20 -34.5 -21t-11.5 28v52q0 20 -8.5 28t-24.5 8h-123q-15 0 -25.5 8t-10.5 26v51q0 32 9.5 38.5t35.5 6.5h19q7 0 17.5 -0.5t25.5 -0.5h44q24 0 32.5 16t8.5 36v48q0 20 8.5 26t25.5 -9q19 -13 48.5 -31.5t62 -38t62.5 -38.5t48 -34z" />
    <glyph glyph-name="uF00EF" unicode="&#xf00ef;" horiz-adv-x="1030" 
d="M55 239q-23 0 -40 17t-17 41v78q0 23 17 40t40 17h752q-15 -4 -29.5 -10.5t-25.5 -21.5q-33 -37 -66 -79.5t-62 -81.5h-569zM183 498q-23 0 -40 17t-17 41v72q0 23 17 40t40 17h780q23 0 40.5 -17t17.5 -40v-72q0 -24 -17.5 -41t-40.5 -17h-780zM700 48v-8q0 -6 0.5 -20
t0.5 -41h-646q-23 0 -40 17t-17 42v77q0 23 17 40t40 17h517q-3 -2 -5.5 -5.5t-4.5 -5.5q-10 -15 -12 -34.5t4 -37t20 -30t34 -12.5h48zM1006 163l15 -26q6 -10 6 -16t-7.5 -8.5t-25.5 -2.5h-55q-23 0 -34 -11.5t-11 -29.5v-100q0 -17 -15.5 -34.5t-36.5 -17.5h-40
q-16 0 -27.5 12t-11.5 41q0 14 0.5 17.5t0.5 9t0.5 19t0.5 45.5q0 26 -8.5 37.5t-31.5 11.5h-55q-24 0 -30 9.5t10 29.5q16 21 34.5 48t38.5 56.5t39 57t37 48.5q7 9 18 13.5t23.5 5t22.5 -2.5t16 -10q12 -22 28 -48t33 -53l34 -52q17 -27 32 -49z" />
    <glyph glyph-name="uF00F0" unicode="&#xf00f0;" horiz-adv-x="1102" 
d="M187 498q-23 0 -40 17.5t-17 41.5v71q0 24 17 41t40 17h783q24 0 41.5 -17t17.5 -41v-71q0 -24 -17.5 -41.5t-41.5 -17.5h-783zM59 237q-24 0 -41 17t-17 42v78q0 23 17 40.5t41 17.5h755q14 0 26.5 -6.5t20.5 -17.5q-21 -3 -39.5 -10t-31.5 -16q-12 -9 -33.5 -25.5
t-47.5 -36.5t-54 -42t-51 -41h-545zM596 107q26 -27 63 -61.5t77 -68.5h-677q-24 0 -41 17t-17 42v77q0 23 17 40t41 17h523q2 -21 5 -38t9 -25zM1065 237q14 0 25.5 -7.5t11.5 -25.5v-52q0 -31 -10 -38.5t-36 -7.5q-12 0 -19 0.5t-17 0.5t-26 1t-45 1q-22 0 -31.5 -16
t-9.5 -36v-50q0 -20 -9 -25.5t-26.5 9t-46 33t-59.5 38t-60 38.5t-48 34q-14 11 -14.5 31t10.5 30q17 13 44.5 31.5t57 37.5t58 37t46.5 34q24 19 35.5 20t11.5 -30v-49q0 -20 9.5 -29.5t24.5 -9.5h123z" />
    <glyph glyph-name="uF00F1" unicode="&#xf00f1;" horiz-adv-x="1091" 
d="M58 235q-24 0 -41 17t-17 43v77q0 23 17 40.5t41 17.5h751q8 0 16 -3q-41 -5 -78 -21t-68 -41t-54 -58.5t-36 -71.5h-531zM573 170q-1 -8 -1 -15v-15q0 -46 13.5 -87t37.5 -76h-565q-24 0 -41 17t-17 42v77q0 23 17 40t41 17h515zM185 495q-23 0 -40 16.5t-17 41.5v71
q0 24 17 41.5t40 17.5h780q23 0 40 -17.5t17 -41.5v-71q0 -25 -17 -41.5t-40 -16.5h-780zM865 363q46 0 87 -17.5t72 -48t49 -71.5t18 -87q0 -47 -18 -88t-49 -71.5t-72 -48t-87 -17.5t-87 17.5t-71.5 48t-48.5 71.5t-18 88q0 46 18 87t48.5 71.5t71.5 48t87 17.5zM992 102
q10 0 17 11t7 25.5t-7 24t-17 9.5h-96v90q0 8 -8.5 14.5t-24.5 6.5t-24 -6.5t-8 -14.5v-113q0 -3 -0.5 -5.5t-0.5 -5.5q0 -14 7 -25t17 -11h138z" />
    <glyph glyph-name="uF00F2" unicode="&#xf00f2;" 
d="M128 46q0 -27 18.5 -45t44.5 -18h192v-128h-255q-27 0 -50 10t-40.5 27.5t-27.5 40.5t-10 50v638q0 25 10 48.5t27.5 40.5t40.5 27t50 10h701q27 0 50 -10t40.5 -27t27.5 -40.5t10 -48.5v-252l-128 -1v61q0 27 -18 45.5t-45 18.5h-575q-26 0 -44.5 -18.5t-18.5 -45.5
v-383zM990 106q22 -18 22.5 -34t-21.5 -33q-21 -19 -51 -42t-61 -48t-62 -49t-55 -43q-27 -21 -44 -16t-17 32q1 16 0 40.5t-1 41.5q0 19 -10.5 24t-31.5 5t-39.5 0.5t-36 0.5t-36.5 0.5t-41 0.5q-9 0 -20 2t-19.5 7t-14.5 15t-6 28v81q0 31 15.5 42t48.5 11q31 -1 61.5 -1
t71.5 -1q30 0 46.5 5t16.5 26q-2 14 0 35t2 37q0 27 14 33.5t37 -10.5q22 -19 52.5 -43.5t62 -50.5t63 -51t54.5 -45z" />
    <glyph glyph-name="uF00F3" unicode="&#xf00f3;" horiz-adv-x="1037" 
d="M901 174q-19 17 -37 32.5t-34 27.5h137q17 0 26 -9t9 -19q0 -11 -9 -21.5t-26 -10.5h-66zM940 302l-896 2v429q0 33 23 56t56 23h739q33 0 55.5 -23t22.5 -56v-431zM673 183q0 -2 0.5 -4.5t0.5 -4.5h-663q-16 0 -23.5 9t-7.5 21q0 10 7.5 20t23.5 10h696
q-15 -11 -24.5 -24t-9.5 -27zM428 107h128v-256q0 -26 -19 -44.5t-45.5 -18.5t-45 18.5t-18.5 44.5v256zM1001 18q15 -11 15.5 -31.5t-10.5 -28.5q-18 -14 -46 -31.5t-59.5 -36.5t-60.5 -37.5t-47 -33.5q-24 -20 -36 -20.5t-12 29.5v49q0 20 -9 29.5t-24 9.5h-59
q-14 0 -25 7t-11 26v52q0 31 10 37.5t36 6.5q12 0 9.5 0t-5 -0.5t2.5 -0.5h35q22 0 31 16t9 35v48q0 21 9 26.5t26 -8.5q19 -15 48.5 -33t62 -37.5t62.5 -38.5t48 -34z" />
    <glyph glyph-name="uF00F4" unicode="&#xf00f4;" 
d="M515 -62q0 -37 18 -62.5t43 -33.5q-30 -2 -57.5 -3t-49.5 -1q-28 0 -65.5 2t-77.5 5.5t-79 8t-71 9t-54 9.5t-28 10q-11 8 -16.5 47.5t4.5 103.5q4 25 16 40.5t29.5 26.5t39 18t44 13t43.5 13.5t38 18.5q20 12 31.5 24t16 23.5t4.5 24t-1 28.5q-2 22 -15.5 35t-29.5 27
q-8 7 -14.5 19t-10.5 25q-5 14 -10 31q-7 2 -14 7q-6 5 -12.5 13.5t-11.5 25t-3.5 30t5.5 23.5q4 11 12 20q-1 37 4 74q4 31 14 67t30 65q19 27 41.5 44t46.5 26.5t48 13t46 3.5q28 0 56 -6.5t52 -17t43 -24t31 -27.5q24 -31 36 -68.5t17 -71.5q6 -39 5 -79q7 -4 11 -12
q4 -7 6.5 -17.5t0.5 -26.5q-3 -20 -9.5 -32.5t-14.5 -18.5q-9 -8 -18 -11q-5 -17 -10 -31q-5 -13 -10.5 -25t-13.5 -19q-10 -8 -18 -13t-13.5 -11.5t-9.5 -14.5t-6 -20q-2 -15 -1.5 -30t8 -30t22.5 -28.5t42 -24.5q6 -2 10 -3v-37v-30q-5 -1 -16 -1h-65q-89 0 -89 -71v-73z
M996 -3q13 -11 13.5 -30t-9.5 -28q-17 -12 -43.5 -29.5t-56.5 -35t-57.5 -35t-44.5 -32.5q-23 -19 -34 -19t-11 28v47q0 19 -9 27.5t-23 8.5h-116q-15 0 -25 7.5t-10 24.5v49q0 29 9.5 36t33.5 7q11 0 18 -0.5t17 -0.5t24.5 -0.5t41.5 -0.5q21 0 30 15t9 33v47
q0 19 8.5 24.5t25 -8t45 -31t59 -36t59 -36.5t46.5 -32z" />
    <glyph glyph-name="uF00F5" unicode="&#xf00f5;" 
d="M660 290q24 7 46 14q19 6 39 11.5t34 10.5l-14 -51q-6 -21 -10 -32q-10 -25 -23 -47.5t-24 -38.5q-14 -19 -28 -35l-118 -36l97 -17q-19 -16 -42 -34q-19 -14 -43.5 -30t-51 -29t-59.5 -13.5t-63 3.5q-35 5 -69 17q10 16 23 36q10 17 25 40.5t31 52.5q46 78 89.5 152.5
t77.5 135.5q40 70 76 132q-45 -52 -95 -116q-43 -55 -96 -130t-107 -164q-12 -19 -26.5 -42.5t-30 -50.5t-32.5 -55.5t-33 -55.5q-38 -62 -79 -130q1 20 8 52q6 27 19.5 67t38.5 95q16 34 24.5 53.5t13.5 29.5q5 12 8 16q-5 5 -2 23q2 15 11 44t31 82q22 54 58 116t81 122.5
t97.5 117.5t108 101.5t110.5 72.5t107 32q1 -34 -7 -89t-19.5 -117.5t-25.5 -127.5t-28 -118z" />
    <glyph glyph-name="uF00F6" unicode="&#xf00f6;" 
d="M369 117h107l-203 -266l-70 50zM837 812q24 0 41 -17t17 -40v-450h-766v450q0 23 17 40t41 17h650zM129 240h766v-6q0 -24 -17 -40.5t-41 -16.5h-650q-24 0 -41 16.5t-17 40.5v6zM618 117l167 -208l-68 -50l-208 258h109z" />
    <glyph glyph-name="uF00F7" unicode="&#xf00f7;" 
d="M289 624q19 0 37 -8t31.5 -20.5t21 -30.5t7.5 -38.5t-7.5 -38t-21 -31t-31.5 -21t-37 -7.5q-21 0 -39 7.5t-30.5 21t-20.5 31t-8 37.5q0 41 28.5 69.5t69.5 28.5zM639 -85h-512q-26 0 -48.5 8t-39.5 24.5t-27.5 39.5t-10.5 53v643q0 26 9 49t25.5 40t39 28t49.5 11h643
q55 0 92.5 -34.5t37.5 -100.5v-393q-11 13 -22.5 26t-22.5 25q-17 19 -38.5 29t-43.5 10t-43 -9.5t-38 -27.5q-24 -29 -50 -61t-50.5 -64.5t-47 -62.5t-40.5 -53q-12 -13 -13.5 -32.5t5 -37.5t19.5 -30.5t34 -12.5h49l44 1v-68zM275 237q54 0 91.5 17.5t69 45t60.5 59
t66.5 59t86.5 47t120 22.5v172q0 13 -8.5 21t-20.5 8h-583q-13 0 -21 -8t-8 -21v-357q10 -12 21.5 -24t28 -21t39.5 -14.5t58 -5.5zM944 97q19 -29 21.5 -41t-31.5 -12h-56q-23 0 -34 -11.5t-11 -28.5v-100q0 -18 -15.5 -35.5t-37.5 -17.5h-41q-14 0 -26 12t-12 42
q0 13 0.5 16.5t0.5 9t0.5 19t0.5 46.5q0 26 -9 37t-31 11h-55q-23 0 -30 10t9.5 30.5t35.5 48t39 56t39 56.5t36 50q7 8 19 11.5t25 3.5t23.5 -4t14.5 -11q14 -22 29.5 -47t32.5 -51t33 -51.5t30 -48.5z" />
    <glyph glyph-name="uF00F8" unicode="&#xf00f8;" 
d="M992 170q14 -4 22.5 -15.5t8.5 -27.5v-227q0 -18 -13 -31.5t-31 -13.5h-869q-20 0 -32.5 13.5t-12.5 31.5v227q0 32 29 42q-30 78 -30 165q0 99 37.5 186.5t102.5 152t152 102t186 37.5t186 -37.5t152 -102t102.5 -152t37.5 -186.5q0 -43 -7 -84t-21 -80zM576 363h148
q-6 27 -19.5 50.5t-32.5 41.5t-44 30t-52 16v-138zM514 688q-65 -5 -122 -32t-100.5 -70.5t-70.5 -100t-32 -122.5h67q5 50 27 94.5t56.5 79t78.5 56t96 26.5v69zM514 500q-53 -10 -91 -47.5t-49 -89.5h140v137zM190 303q6 -68 37 -131h76q-19 29 -31.5 62t-15.5 69h-66z
M448 -69q3 11 2.5 11.5t-1.5 2.5l-1 147q-1 3 -8.5 10.5t-19.5 8.5q-17 1 -38 1t-41 -0.5t-35.5 -1t-20.5 -0.5q-15 0 -20.5 -4t-9.5 -13l-1 -148q-1 -2 -2.5 -3t-1.5 -3q0 -8 6 -12q4 -2 16.5 -5.5t16.5 -3.5q7 0 17.5 3t12.5 9l-1 37h65l1 -34q2 -5 9 -8t14 -3
q5 0 12.5 0.5t10.5 2.5t10 2t8 4zM370 303q6 -42 28 -75.5t55 -55.5h61v131h-144zM638 -73q3 2 9 11t6 14q0 3 -6 13t-9 13q-7 5 -15 5h-50v103q0 8 -6 13q-3 2 -14 6.5t-16 4.5q-4 0 -10.5 -4.5t-9.5 -6.5q-8 -4 -8 -13v-164h113q9 0 16 5zM644 172q34 22 56 55.5t27 75.5
h-151v-131h68zM836 -73q4 2 6.5 12t2.5 15q0 3 -2.5 12.5t-6.5 11.5q-5 5 -16 5h-55v103q0 8 -6 13q-3 2 -13 6.5t-15 4.5q-4 0 -12.5 -4.5t-11.5 -6.5q-7 -4 -7 -13v-164h120q9 0 16 5zM855 172q32 63 38 131h-64q-8 -72 -47 -131h73zM894 363q-5 65 -32 121t-69 99
t-98 70.5t-119 33.5v-68q50 -6 94 -27.5t77.5 -56t55 -78.5t26.5 -94h65zM320 46h64v-48h-64v48z" />
    <glyph glyph-name="uF00F9" unicode="&#xf00f9;" 
d="M620 748q40 0 77 -12t66 -33.5t46.5 -52t17.5 -66.5v-21v-453v-8q0 -39 -15 -72.5t-42 -58t-64 -38.5t-81 -14h-11h-94q0 -18 3.5 -33.5t13.5 -24.5q13 -10 26 -15.5t26 -8.5t25 -3.5t22.5 -0.5t17 -7t7.5 -15.5t-4 -15.5t-20 -7h-314q-14 0 -20 7t-5 16.5t8 16.5t19 7
q26 0 48.5 6.5t39.5 29.5q7 8 10 20.5t5 27.5h-192q-10 0 -18.5 6t-15 15t-10.5 20.5t-4 20.5t4 19.5t10.5 20t15 15t18.5 5.5h384h2q42 0 61.5 26.5t19.5 66.5v14v393v15q0 29 -17 47t-51 18h-399q-10 0 -18.5 6.5t-14.5 15.5t-9.5 19.5t-3.5 20t3.5 21t9.5 21t14.5 16.5
t18.5 7h197q4 22 10.5 43t20.5 21h24q13 0 20.5 -21t10.5 -43h101zM174 365q-19 0 -33 14t-14 33v98q0 19 14 33t33 14h419q19 0 32 -14t13 -33v-98q0 -19 -13 -33t-32 -14h-419zM638 156q0 -19 -13 -33t-32 -14h-419q-19 0 -33 14t-14 33v99q0 20 14 33t33 13h419
q19 0 32 -13t13 -33v-99z" />
    <glyph glyph-name="uF00FA" unicode="&#xf00fa;" 
d="M175 366q-19 0 -32.5 13t-13.5 34v98q0 18 13.5 32t32.5 14h418q19 0 32.5 -14t13.5 -32v-98q0 -21 -13.5 -34t-32.5 -13h-418zM630 284q-60 -24 -104 -69t-65 -105h-286q-19 0 -32.5 13.5t-13.5 33.5v99q0 18 13.5 31.5t32.5 13.5h418q22 0 37 -17zM237 621
q-10 0 -18.5 6t-15 15t-10.5 20.5t-4 20.5t4 20.5t10.5 21t15 16t18.5 6.5h208q0 12 0.5 23t3.5 20.5t7.5 15.5t11.5 6h24q13 0 19 -21t9 -44h101q38 0 75.5 -11.5t67 -33t47 -51.5t17.5 -67v-8v-290q-23 8 -46.5 12t-50.5 4q-7 0 -13.5 -0.5t-14.5 -0.5v275q0 21 -18 32
t-38 13h-410zM731 232q45 0 85 -17t69 -46.5t46 -69.5t17 -84q0 -45 -17 -84.5t-46 -69t-69 -46.5t-85 -17t-84 17t-68 46.5t-46 69t-17 84.5q0 44 17 84t46 69.5t68 46.5t84 17zM814 -83q15 0 26 9.5t11 25.5q0 14 -11 24.5t-26 10.5h-150q-15 0 -25 -10.5t-10 -24.5
q0 -16 10 -25.5t25 -9.5h150zM816 46q15 0 25.5 11t10.5 25t-10.5 21.5t-25.5 7.5h-158q-15 0 -25 -7.5t-10 -21.5t10 -25t25 -11h158zM444 15q0 -69 30.5 -128t81.5 -99h-232q-15 0 -20.5 7.5t-5 16.5t8 16.5t20.5 7.5q24 0 46.5 6.5t40.5 29.5q6 8 9.5 20.5t5.5 26.5h-192
q-10 0 -18.5 6t-15 15.5t-11 20.5t-4.5 20.5t4.5 20t11 20t15 15t18.5 5.5h208q0 -6 -0.5 -13.5t-0.5 -13.5z" />
    <glyph glyph-name="uF00FB" unicode="&#xf00fb;" 
d="M637 -207v-5h-313q-15 0 -20.5 7t-5 16.5t8 16.5t20.5 7q24 0 46.5 7t40.5 29q6 8 9 21t5 27h-191q-10 0 -18.5 6t-15 15.5t-11 20.5t-4.5 20.5t4.5 20t11 20t15 15t18.5 5.5h384h1q10 0 15 1v-122h-7q-8 -2 -9 -2h-100q0 -17 3.5 -32.5t13.5 -23.5q23 -21 50.5 -25
t48.5 -4v-41zM593 557q19 0 32.5 -14t13.5 -33v-98q0 -20 -13.5 -33t-32.5 -13h-418q-19 0 -32.5 13t-13.5 33v98q0 19 13.5 33t32.5 14h418zM593 301q19 0 32.5 -13.5t13.5 -32.5v-99q0 -20 -13.5 -33t-32.5 -13h-418q-19 0 -32.5 13t-13.5 33v99q0 19 13.5 32.5t32.5 13.5
h418zM703 567q0 22 -18 37t-37 17h-411q-10 0 -18.5 6t-15 15t-10.5 20t-4 20t4 21t10.5 21.5t15 16t18.5 6.5h208q0 12 0.5 23t3.5 20.5t7.5 15.5t11.5 6h24q12 0 17.5 -21t10.5 -44h101q38 0 75.5 -11.5t67 -33t46.5 -52.5t17 -67v-7v-404h-114h-10v395zM919 110
q15 0 26.5 -11.5t11.5 -27.5v-205q0 -9 -9 -22t-22.5 -24.5t-26.5 -19t-21 -7.5h-138q-16 0 -27.5 12t-11.5 29v237q0 16 11.5 27.5t27.5 11.5h179zM776 47q-8 0 -11 -11.5t-3 -20t3.5 -20.5t11.5 -12h104q4 0 6 4.5t4 9.5q2 6 2 15q0 8 -2 21.5t-10 13.5h-105zM876 -147
q8 0 13 10.5t5.5 23t-3.5 23t-14 10.5h-97q-8 0 -11 -7.5t-4 -15.5q-1 -12 1 -24q0 -8 6 -14t12 -6h92z" />
    <glyph glyph-name="uF00FC" unicode="&#xf00fc;" horiz-adv-x="1027" 
d="M578 337q0 -23 -9 -43t-24 -34.5t-35 -23.5t-42 -9h-292q-22 0 -42 9t-35 23.5t-23.5 34.5t-8.5 43v293q0 22 8.5 42.5t23.5 35.5t35 23.5t42 8.5h292q22 0 42 -8.5t35 -23.5t24 -35.5t9 -42.5v-293zM953 546q30 0 51.5 -21.5t21.5 -51.5v-171q0 -31 -21.5 -52.5
t-51.5 -21.5h-173q-29 0 -51 21.5t-22 52.5v171q0 30 22 51.5t51 21.5h173zM953 162q30 0 51.5 -21.5t21.5 -51.5v-172q0 -30 -21.5 -51.5t-51.5 -21.5h-173q-29 0 -51 21.5t-22 51.5v172q0 30 22 51.5t51 21.5h173zM505 162q30 0 52 -21.5t22 -51.5v-172q0 -30 -22 -51.5
t-52 -21.5h-173q-30 0 -51.5 21.5t-21.5 51.5v172q0 30 21.5 51.5t51.5 21.5h173z" />
    <glyph glyph-name="uF00FD" unicode="&#xf00fd;" 
d="M199 656q18 0 30.5 -12.5t12.5 -30.5v-130q0 -17 -12.5 -30.5t-30.5 -13.5h-152q-17 0 -30 13.5t-13 30.5v130q0 18 13 30.5t30 12.5h152zM980 656q17 0 30 -12.5t13 -30.5v-130q0 -17 -13 -30.5t-30 -13.5h-586q-17 0 -30 13.5t-13 30.5v130q0 18 13 30.5t30 12.5h586z
M199 332q18 0 30.5 -13t12.5 -30v-65q0 -18 -12.5 -31t-30.5 -13h-65q-17 0 -30 13t-13 31v65q0 17 13 30t30 13h65zM893 332q17 0 30 -13t13 -30v-65q0 -18 -13 -31t-30 -13h-499q-17 0 -30 13t-13 31v65q0 17 13 30t30 13h499zM199 94q18 0 30.5 -13t12.5 -31v-65
q0 -18 -12.5 -30.5t-30.5 -12.5h-65q-17 0 -30 12.5t-13 30.5v65q0 18 13 31t30 13h65zM893 94q17 0 30 -13t13 -31v-65q0 -18 -13 -30.5t-30 -12.5h-499q-17 0 -30 12.5t-13 30.5v65q0 18 13 31t30 13h499z" />
    <glyph glyph-name="uF00FE" unicode="&#xf00fe;" 
d="M42 326h56q23 0 36.5 4t27.5 15l16 16q10 11 21.5 24t23 27t22.5 26q20 26 36.5 20.5t24.5 -24.5l45 -124q35 98 62 176q11 34 22 66.5t20.5 59.5t15.5 45t7 23q5 17 15.5 28t22.5 11q13 0 27.5 -8t18.5 -31q1 -6 4 -32.5t8.5 -66.5t11 -89t11.5 -99q13 -118 31 -263
q22 74 41 134q7 26 14.5 51t14.5 46t11 35.5t6 18.5q5 16 12 24t19 12q24 6 36 -7t12 -26q0 -12 -2 -20q-1 -4 -1 -7l36 -100q1 1 3 4q4 5 11 21q8 18 27 23.5t36 4.5q11 -1 23 -1h22h25v-78q-6 -1 -12 -1h-27q-14 1 -26.5 -7.5t-17.5 -16.5q-4 -9 -14.5 -32.5t-18.5 -47.5
q-4 -13 -13 -17t-19 -3.5t-18.5 5.5t-11.5 12.5t-10.5 25.5t-14.5 36q-9 22 -18 46q-27 -85 -48 -156q-10 -31 -19 -61l-16 -55q-8 -25 -13.5 -42.5t-6.5 -23.5q-5 -24 -19.5 -38.5t-34.5 -13.5q-22 2 -31 18.5t-11 37.5q0 5 -2.5 32t-6.5 68t-9 91t-10 102q-11 122 -26 273
q-29 -84 -51 -151q-10 -29 -19.5 -56.5t-17.5 -50t-13 -37.5l-6 -19q-5 -13 -13.5 -24.5t-27.5 -10.5q-18 0 -27.5 13t-14.5 29q-3 9 -11 32.5t-17 47.5q-12 29 -24 64q-7 -9 -15 -19q-7 -8 -15.5 -17.5t-16.5 -19.5q-16 -19 -30.5 -26t-34.5 -5q-10 1 -27 0.5t-34 -0.5
q-19 -1 -43 -1v80z" />
    <glyph glyph-name="uF00FF" unicode="&#xf00ff;" 
d="M687 588q-60 28 -127 40l8 112h191zM504 327l56 -176h-110zM489 632q-93 0 -175 -35l-107 215h271l35 -180h-24zM489 573q81 0 153 -30.5t125 -84t84 -125.5t31 -153t-31 -152.5t-84 -124.5t-125 -84t-153 -31q-82 0 -153 31t-124.5 84t-84 124.5t-30.5 152.5t30.5 153
t84 125.5t124.5 84t153 30.5zM489.5 -146q68.5 0 128 26t105 70.5t71 104.5t25.5 128.5t-25.5 128.5t-71 105t-105 70.5t-128 25.5t-128.5 -25.5t-105 -70.5t-71 -105t-26 -128.5t26 -128.5t71 -104.5t105 -70.5t128.5 -26zM489 454q56 0 105 -21.5t85.5 -58t58 -85.5
t21.5 -105.5t-21.5 -105t-58 -85.5t-85.5 -58t-105 -21t-105 21t-85.5 58t-58 85.5t-21.5 105t21.5 105.5t58 85.5t85.5 58t105 21.5zM668 32q11 13 11 24q0 14 -12 40l-96 240q-4 9 -7 15.5t-4.5 12.5t-4.5 10l-7 11q-6 9 -16 14q-10 7 -26.5 7t-25.5 -7q-5 -2 -10 -6
t-7 -9q-7 -11 -12 -25q-4 -7 -6 -13.5t-4 -10.5l-95 -241q-7 -16 -8 -23q-3 -7 -3 -15q0 -13 11 -24q10 -9 25 -9q16 0 24 8q7 10 18 38l15 20h152l19 -19l3 -9q2 -5 5 -11q5 -10 10 -17q4 -4 10 -7q7 -3 15 -3q16 0 26 9z" />
    <glyph glyph-name="uF0100" unicode="&#xf0100;" 
d="M965 308q1 -88 -31 -166.5t-87 -138t-131 -98.5t-163 -48q-24 -2 -49.5 -5t-56.5 -3.5t-69.5 0.5t-86.5 6q-106 10 -158 26.5t-42 18.5q29 5 52 12t41 18q21 12 17.5 33t-20.5 39q-51 57 -83.5 133t-35.5 165q-1 93 34 175t95.5 143.5t142.5 98t176 37.5q93 1 175.5 -34
t144 -95.5t98 -142t37.5 -174.5zM577 175v57h144q20 2 31.5 9t13.5 25q-2 20 -13 28t-31 10h-100l95 150q8 9 13.5 24t5.5 26q-4 33 -19.5 41t-36.5 10q-18 -2 -31.5 -10.5t-32.5 -44.5q-9 -19 -25.5 -49t-33.5 -60q-19 -34 -42 -72q-19 36 -38 69q-15 28 -30 56.5t-23 45.5
q-17 33 -31.5 48t-33.5 17q-31 -4 -42.5 -17.5t-15.5 -33.5q-1 -18 6 -31.5t16 -24.5l84 -144h-100q-20 -2 -31 -10t-13 -28q2 -18 13 -25.5t31 -9.5l137 -1v-55h-137q-20 -2 -31 -7.5t-13 -25.5q2 -19 13 -25t31 -8h137v-66q3 -65 67 -65q33 0 48 16t18 49v67l145 -1
q20 2 31 6.5t13 22.5q-2 20 -13 27.5t-31 9.5h-145z" />
    <glyph glyph-name="uF0101" unicode="&#xf0101;" horiz-adv-x="1033" 
d="M383 307q0 -30 -16 -38t-40 13q-26 19 -56 46t-61.5 56t-62 56.5t-57.5 48.5q-25 21 -26 38t23 37q25 20 53.5 46.5t58.5 54.5t60.5 56t56.5 49q29 24 48 18t19 -35v-23q0 -12 0.5 -26t1 -27t0.5 -23q0 -21 12.5 -26t34.5 -5h57h93q53 0 112 0.5t111 0.5h94h58
q11 0 22.5 -1.5t22 -8t16.5 -17.5t6 -31q0 -22 0.5 -39t0.5 -43q0 -36 -17.5 -48t-53.5 -12h-49q-37 0 -87.5 -0.5t-108.5 -0.5h-109h-92h-55q-32 0 -50.5 -6t-18.5 -30q1 -16 0 -39t-1 -41zM1008 180q24 -20 24 -37.5t-23 -37.5q-25 -20 -65.5 -46t-84.5 -54t-86 -54.5
t-68 -47.5q-30 -24 -48.5 -18t-17.5 36q0 18 -1 45t-1 46q0 21 -4.5 26.5t-26.5 5.5q-16 0 -48 0.5t-73 0.5h-84h-84q-41 0 -73.5 0.5t-48.5 0.5q-12 0 -23 2t-21 8t-16 17.5t-6 30.5v75q1 36 18 48.5t53 12.5q11 0 40 -0.5t67 -0.5h81h83q39 0 70 -0.5t47 -0.5
q32 -1 42.5 5t10.5 28q0 9 0.5 20.5t0.5 24.5t0.5 25t0.5 21q1 30 17 38t40.5 -12.5t66 -47.5t86 -55.5t86.5 -55.5t69 -49z" />
    <glyph glyph-name="uF0102" unicode="&#xf0102;" 
d="M633 313q39 -14 72 -39t57 -58.5t37 -73.5t13 -83q0 -57 -21.5 -106t-58.5 -86t-86 -58t-105 -21t-105 21t-86.5 58t-58.5 86t-21 106q0 44 13.5 84t37.5 73.5t57.5 58.5t72.5 39v405q0 18 6.5 34.5t18 29.5t27.5 21t34 8t35.5 -8t31 -21t21.5 -29.5t8 -34.5v-406z
M543 -35q38 0 65 27t27 67q0 39 -27 66t-65 27q-40 0 -67 -27t-27 -66q0 -40 27 -67t67 -27zM751 691q62 0 62 -58v-63q0 -34 -17 -47t-37 -13h-67v181h59z" />
    <glyph glyph-name="uF0103" unicode="&#xf0103;" 
d="M127 613q0 13 21.5 16.5t54 7t71.5 12.5t73 33q25 17 46 35.5t40.5 36t38.5 32t40 22.5v-380h-381q-2 42 -3 87.5t-1 97.5zM471 -190q-56 43 -101 81t-80.5 76t-61.5 78t-44.5 87t-30.5 103t-18 126h377v-568q-11 3 -21.5 7t-19.5 10zM576 361h375q-5 -70 -15.5 -125
t-27.5 -100.5t-42 -84t-59 -77t-79 -80t-102 -91.5q-22 -12 -50 -15v573zM757 667q29 -21 63.5 -27t65.5 -8t52 -3.5t21 -11.5q0 -106 -3 -189h-380v384q26 -6 48.5 -23t43.5 -38t42.5 -43.5t46.5 -40.5z" />
    <glyph glyph-name="uF0104" unicode="&#xf0104;" 
d="M61 502q0 26 19 44.5t46 18.5h64v-287h-64q-27 0 -46 18.5t-19 44.5v161zM777 765q44 42 79.5 46t63.5 -19t47 -67t31.5 -99t18.5 -114.5t6 -114t-7.5 -108.5t-22.5 -101.5t-35 -83.5t-44.5 -53.5t-52.5 -12t-59 39.5q-29 35 -80 58t-110.5 39t-121 25.5t-112.5 17.5
t-85.5 15t-38.5 17v320q4 14 32.5 23.5t72 17.5t98 18t111 26.5t111 42.5t98.5 67zM409 139q5 -13 12 -27q6 -13 16.5 -30.5t24.5 -37.5q17 -25 35 -52t27 -49t5.5 -36.5t-28.5 -14.5h-59q-20 0 -37.5 8t-33 23.5t-32.5 40t-37 58.5q-23 39 -32.5 68t-12.5 49q-4 22 0 39
q9 -2 20 -5l23 -5q13 -3 30 -6q17 -4 31 -7.5t25 -7.5q13 -4 23 -8z" />
    <glyph glyph-name="uF0105" unicode="&#xf0105;" 
d="M148 626q19 22 37 42q15 17 30.5 32.5t24.5 22.5q11 9 23.5 16t34.5 7h442q14 0 31 -5.5t34 -22.5q8 -10 21.5 -25.5t25.5 -30.5q14 -17 29 -36h-733zM980 319q0 -32 -21.5 -54.5t-61.5 -22.5h-757q-39 0 -62 22.5t-23 54.5v147q0 33 20.5 56.5t66.5 23.5h754
q47 0 65.5 -23.5t18.5 -56.5v-147zM594 393q0 13 -6.5 19t-18.5 6h-103q-11 0 -18.5 -7.5t-7.5 -17.5q1 -13 8 -19t18 -6h103q24 0 25 25zM977 -51q0 -33 -25 -56.5t-64 -22.5h-751q-33 0 -59 23t-26 64v137q0 34 21 57t67 23h752q43 0 64 -23t21 -56v-146zM591 21.5
q0 10.5 -6.5 17.5t-18.5 7h-103q-11 0 -18.5 -7t-7.5 -17.5t7.5 -17.5t18.5 -7h103q12 0 18.5 7t6.5 17.5z" />
    <glyph glyph-name="uF0106" unicode="&#xf0106;" 
d="M186 652.5q0 14.5 10 24t25 9.5h-22q-28 0 -48 -20t-20 -49v-444q0 -27 20 -47.5t48 -20.5h60v-128h-148q-22 0 -42 9t-35 25t-23.5 36t-8.5 41v615q0 21 9.5 41t26 35.5t36 24t39.5 8.5h612q52 0 81.5 -32.5t29.5 -81.5v-397h-128v316q0 29 -20 49t-48 20h-19
q15 0 24.5 -9.5t9.5 -24t-9.5 -25t-24.5 -10.5h-93q-14 0 -23.5 10.5t-9.5 25t9.5 24t23.5 9.5h-215q14 0 23.5 -9.5t9.5 -24t-9.5 -25t-23.5 -10.5h-92q-15 0 -25 10.5t-10 25zM920 -84q19 0 32.5 -8t13.5 -28q0 -19 -13.5 -25t-32.5 -6h-553q-20 0 -33 6t-13 25
q0 20 13 28t33 8h20v2v333q0 19 21 32.5t47 13.5q30 0 46 -13.5t16 -32.5v-333v-2h64v2v206q0 19 17 32t45 13q34 0 49.5 -13t15.5 -32v-206v-2h65v2v208q0 21 16.5 33.5t46.5 12.5q31 0 48.5 -12.5t17.5 -33.5v-208v-2h18z" />
    <glyph glyph-name="uF0107" unicode="&#xf0107;" 
d="M420 427l27 59v-59h-27zM195 553h120v-126h-52l42 27l-34 79l-55 -17l33 -89h-54v126zM413 530l-28 -52v75h62v-44zM403 427h-18v14zM825 746q28 0 53 -10.5t43.5 -29t29.5 -43t11 -53.5v-622q0 -29 -11 -53.5t-29.5 -43t-43.5 -29.5t-53 -11h-689q-27 0 -52.5 11
t-43.5 29.5t-29 43t-11 53.5v622q0 29 11 53.5t29 43t43.5 29t52.5 10.5h689zM319 233v-66l-198 -4l5 -72l383 21l3 62l-129 -3v62h130v68h-130v60h130v263h-385v-263h191v-60h-192v-68h192zM185 -47q9 25 13.5 50t6.5 30l-73 10q-5 -18 -7 -26t-4 -13.5t-5 -13t-10 -24.5z
M315 -22q-10 29 -12 41t-6 24l-46 -7q1 -3 5.5 -23t6.5 -44zM432 -21q-5 14 -7.5 19.5t-5 10t-5 11t-7.5 21.5l-56 -2q0 1 0.5 -4.5t3 -15t7.5 -20.5t13 -21zM798 -44q1 2 7.5 10t13 17.5t13 17t8.5 10.5q-37 33 -60.5 64.5t-38.5 71t-23.5 91t-16.5 123.5h133v66h-126
l-3 195l-66 -3l2 -192h-64v-66h56q1 -91 -16 -153t-36 -99q-24 -46 -55 -72l-22 37l-54 -24q14 -20 27 -39q11 -16 23.5 -34t21.5 -31q36 36 62 61.5t45 52.5t31.5 63t19.5 93q6 -56 12 -91t18 -61t32 -49.5t56 -58.5zM855 558l-51 71l-49 -26l54 -72z" />
    <glyph glyph-name="uF0108" unicode="&#xf0108;" 
d="M889 746q29 0 53 -10.5t41.5 -29t28 -43.5t10.5 -54v-620q0 -29 -10.5 -54t-28 -43.5t-41.5 -29.5t-53 -11h-690q-29 0 -54 11t-43.5 29.5t-29.5 43.5t-11 54v620q0 29 11 54t29.5 43.5t43.5 29t54 10.5h690zM826 490v-125h-190v-163q-1 -25 0 -43.5t8 -30.5t22.5 -18
t43.5 -5h181l3 68h-106q-15 -1 -31 2t-28 9.5t-19.5 16.5t-6.5 24v74h190v255h-258v-64h191zM879 -22q5 15 9 32.5t9 32.5h-78q-51 -1 -84 -1h-57q-24 0 -42 0.5t-37 0.5h-54q-24 0 -41.5 1.5t-31 4t-27.5 7.5v118h125v60h-125v133h129v60h-131v67h129v61h-129v66h-66v-66
h-128v-61h128v-67h-191v-60h195v-291q-11 9 -19.5 17.5t-16.5 19.5t-15.5 25t-17.5 33q1 5 2 23t2 38t1.5 37.5t0.5 22.5l-63 3q0 -75 -5 -121t-14 -74t-21.5 -44t-28.5 -29q2 -5 8.5 -16.5t14.5 -19.5q15 -13 21 -19q13 22 24.5 35.5t22 25.5t17.5 24.5t9 29.5
q16 -34 43 -55.5t63 -33t82 -15.5t99 -1q24 -1 49 -2t57 -1.5t76 -0.5h107z" />
    <glyph glyph-name="uF0109" unicode="&#xf0109;" 
d="M130 111q0 -26 18 -44.5t45 -18.5h189v-127h-252q-27 0 -50 9.5t-40.5 27t-27.5 41t-10 49.5v637q0 25 10 48.5t27.5 41t40.5 27.5t50 10h763q27 0 50 -10t40.5 -27.5t27.5 -41t10 -48.5v-252l-128 -1v62q0 26 -18.5 44.5t-45.5 18.5h-636q-27 0 -45 -18.5t-18 -44.5
v-383zM1001 67q13 -5 17.5 -19t2 -32.5t-9.5 -37.5t-17 -33t-21.5 -22t-21.5 -2q-21 9 -48 27t-58 41t-64.5 49t-65.5 53q-6 13 -19 16q-2 1 -2.5 2t-1.5 2q-2 -1 -2 -1.5t-1 -1.5h-2q-13 0 -22 -9t-9 -21q0 -7 4 -16q-7 -5 -18 -9.5t-23 -6t-24.5 0.5t-21.5 8
q-23 16 -43.5 31.5t-42.5 28.5q-7 4 -14 12.5t-11.5 18.5t-4.5 21t8 22q2 2 4 6q8 -5 18 -5q13 0 22 9t9 21q0 9 -4 15.5t-9 10.5q20 30 41.5 60t40.5 59q7 -3 15 -3q12 0 21 9t9 22q0 11 -6 19q40 37 87 -1q17 -14 35 -29t33 -28q34 -26 14 -74q-11 -2 -18 -11t-7 -20
q0 -4 2 -8q-6 -11 -12.5 -22.5t-14.5 -22.5q36 -19 74.5 -38.5t72.5 -37t62.5 -31.5t46.5 -22z" />
    <glyph glyph-name="uF010A" unicode="&#xf010a;" 
d="M129 111q0 -26 18 -45t45 -19h254v-127h-317q-27 0 -50 9.5t-40.5 27t-27.5 41t-10 49.5v638q0 26 10 49t27.5 40.5t40.5 27.5t50 10h764q27 0 50 -10t40.5 -27.5t27.5 -40.5t10 -49v-189l-128 -4v2q0 26 -18.5 44.5t-45.5 18.5h-637q-27 0 -45 -18.5t-18 -44.5v-383z
M733 497q60 0 113 -23t92 -62.5t62 -92.5t23 -113t-23 -112.5t-62 -91.5t-92 -61.5t-113 -22.5t-112.5 22.5t-91.5 61.5t-62 91.5t-23 112.5t23 113t62 92.5t91.5 62.5t112.5 23zM805 239l89 84l-44 47l-101 -98l32 -33h-107l33 42l-94 91l-39 -51l86 -82h-86v-64h128v-64
h-128v-64h128v-63h64v63h127v64h-127v64h127v64h-88z" />
    </font>
</defs>
</svg>
